<?xml version="1.0" standalone="no"?>
<!DOCTYPE svg PUBLIC "-//W3C//DTD SVG 1.1//EN" "http://www.w3.org/Graphics/SVG/1.1/DTD/svg11.dtd" >
<svg xmlns="http://www.w3.org/2000/svg" xmlns:xlink="http://www.w3.org/1999/xlink" version="1.1">
<metadata>
Created by FontForge 20201107 at Tue Dec 18 11:12:02 2001
 By Jimmy Wärting
(c)  Dalton Maag Ltd 2001. For use with TUI related projects only. No modification of this font permitted without consent and approval of Dalton Maag Ltd.
</metadata>
<defs>
<font id="TUITypeLight-Italic" horiz-adv-x="963" >
  <font-face 
    font-family="TUITypeLight"
    font-weight="400"
    font-style="italic"
    font-stretch="normal"
    units-per-em="2048"
    panose-1="2 11 3 4 2 2 2 9 2 3"
    ascent="1638"
    descent="-410"
    x-height="893"
    cap-height="1380"
    bbox="-406 -408 2302 1840"
    underline-thickness="102"
    underline-position="-289"
    slope="-11"
    unicode-range="U+0020-FB02"
  />
<missing-glyph horiz-adv-x="2048" 
 />
    <glyph glyph-name=".notdef" horiz-adv-x="2048" 
 />
    <glyph glyph-name=".null" horiz-adv-x="0" 
 />
    <glyph glyph-name="nonmarkingreturn" horiz-adv-x="1024" 
 />
    <glyph glyph-name="space" unicode=" " horiz-adv-x="512" 
 />
    <glyph glyph-name="exclam" unicode="!" horiz-adv-x="381" 
d="M315 92q0 -22 -8.5 -41.5t-23 -34.5t-33 -23.5t-39.5 -8.5t-39.5 8.5t-32.5 23.5t-22 34.5t-8 41.5t8 42.5t22 35.5t32.5 24t39.5 9t39.5 -9t33 -24t23 -35.5t8.5 -42.5zM545 1352q0 -11 -6 -35l-193 -907q-3 -14 -16 -24.5t-51 -10.5q-25 0 -37.5 2.5t-20.5 7.5
q-8 8 -8 18q0 11 6 35l193 908q3 14 16 24t51 10q25 0 37.5 -2.5t20.5 -7.5q8 -8 8 -18z" />
    <glyph glyph-name="quotedbl" unicode="&#x22;" horiz-adv-x="692" 
d="M551 1348q0 -13 -2.5 -23l-5.5 -22l-84 -349q-2 -11 -6 -19t-12.5 -14t-21.5 -9t-34 -3q-20 0 -32 2.5t-18.5 6.5t-8.5 8.5t-2 9.5q0 8 2.5 22.5t5.5 28.5l63 344q3 16 8 24t13 13t23.5 8.5t41.5 3.5q42 0 56 -9t14 -23zM866 1348q0 -13 -2.5 -23l-5.5 -22l-84 -349
q-2 -11 -6 -19t-12 -14t-21.5 -9t-34.5 -3q-20 0 -32 2.5t-18.5 6.5t-8.5 8.5t-2 9.5q0 8 2.5 22.5t5.5 28.5l64 344q3 16 7.5 24t12.5 13t24 8.5t42 3.5q41 0 55 -9.5t14 -22.5z" />
    <glyph glyph-name="numbersign" unicode="#" horiz-adv-x="1075" 
d="M584 799l-80 -305h244l79 305h-243zM1200 844q-6 -25 -14 -35t-27 -10h-207l-80 -305h181h15q8 0 13 -2q4 -2 7.5 -4.5t5.5 -8t2 -15.5q0 -9 -4 -24q-7 -24 -15 -34.5t-26 -10.5h-205l-96 -362q-7 -23 -20.5 -28t-47.5 -5q-35 0 -46 5.5t-11 14.5q0 10 2.5 19.5t5.5 21.5
l88 334h-244l-96 -362q-6 -23 -20 -28t-48 -5q-35 0 -46 5.5t-11 14.5q0 10 2.5 19.5t5.5 21.5l88 334h-180h-16t-13 2q-4 1 -7.5 4t-5 8.5t-1.5 14.5q0 10 4 25q6 24 14.5 34.5t26.5 10.5h205l80 305h-178h-16t-13 2q-8 3 -13 11.5t3 39.5q6 25 14 35t27 10h202l97 363
q6 23 19.5 27.5t47.5 4.5q35 0 46.5 -5.5t11.5 -14.5t-3 -19t-6 -22l-88 -334h244l96 363q6 23 20 27.5t48 4.5q35 0 46 -5.5t11 -14.5t-2.5 -19l-5.5 -22l-88 -334h182h16t13 -2q4 -2 7.5 -4t5 -7.5t1.5 -15.5q0 -9 -4 -24z" />
    <glyph glyph-name="dollar" unicode="$" horiz-adv-x="1030" 
d="M870 371q0 80 -45.5 128t-132.5 72l-14 4l-100 -469q54 4 106 19t93.5 46t67 79.5t25.5 120.5zM702 1176q-54 1 -105.5 -14t-92 -45.5t-65.5 -76t-25 -106.5q0 -39 13 -69t36.5 -53t56.5 -40.5t72 -30.5l18 -6zM1102 1184q0 -17 -19 -49q-11 -19 -18 -27t-18 -8
t-18.5 3.5t-18.5 8.5q-25 12 -47.5 21.5t-46.5 17t-51 12.5t-60 8l-98 -462l53 -17q58 -18 104.5 -43.5t78.5 -61t49.5 -82t17.5 -106.5q0 -113 -40 -191.5t-104.5 -127.5t-146.5 -72t-166 -24l-27 -121q-2 -9 -5 -15.5t-9 -10.5t-16.5 -5.5t-28.5 -1.5q-35 0 -41.5 7
t-1.5 26l27 125q-62 6 -110.5 19.5t-85 29t-61.5 30.5t-40 25q-19 14 -26 24t-7 19q0 6 2.5 17t13.5 28q13 19 25 30t24 11q13 0 28 -10t34 -23q10 -8 30.5 -19.5t49.5 -24t66 -23t81 -15.5l107 496l-35 10q-128 38 -196 106.5t-68 180.5q0 99 38 173t100 123t142.5 73.5
t165.5 23.5l21 101q3 18 12.5 25t44.5 7t42.5 -7t2.5 -25l-23 -105q75 -8 134.5 -26.5t105.5 -42.5q14 -8 23.5 -16t9.5 -19z" />
    <glyph glyph-name="percent" unicode="%" horiz-adv-x="1567" 
d="M1444 365q0 35 -8 65.5t-25.5 53t-45.5 35.5t-67 13q-58 0 -101.5 -29t-72 -73.5t-43 -97.5t-14.5 -101q0 -35 7.5 -64t24.5 -51t44 -34t65 -12q59 0 103.5 27t74 70t44 95.5t14.5 102.5zM762 1135q0 35 -8 66t-25.5 53.5t-45.5 35.5t-67 13q-58 0 -101.5 -29.5t-72 -74
t-43 -97.5t-14.5 -101q0 -35 7.5 -64t24.5 -51t44 -34t65 -12q59 0 103.5 27t74 70t44 95.5t14.5 102.5zM1565 371q0 -78 -26 -150t-73 -127.5t-112.5 -89t-143.5 -33.5q-60 0 -108.5 16.5t-83 48.5t-53.5 80t-19 111q0 78 26 151t73.5 129.5t113 90t144.5 33.5
q59 0 107 -17.5t82.5 -51t53.5 -82t19 -109.5zM1470 1380q0 -8 -6.5 -18t-15.5 -23l-948 -1331q-14 -18 -31 -23t-51 -5q-32 0 -46 5.5t-14 14.5q0 8 7 18.5t16 22.5l948 1331q14 19 31 24t51 5q32 0 45.5 -5.5t13.5 -15.5zM883 1141q0 -78 -26 -150t-73 -127.5t-112.5 -89
t-143.5 -33.5q-60 0 -108.5 16.5t-83 48.5t-53.5 80t-19 111q0 78 26 151t73.5 129.5t113 90t144.5 33.5q59 0 107 -17.5t82.5 -51t53.5 -82t19 -109.5z" />
    <glyph glyph-name="ampersand" unicode="&#x26;" horiz-adv-x="1225" 
d="M664 698q-70 0 -132 -24t-108 -69t-73 -110.5t-27 -148.5q0 -118 73.5 -177.5t204.5 -59.5q78 0 137.5 22t103.5 64.5t73.5 104.5t46.5 142l55 256h-354zM1366 801q0 -10 -4 -23t-10 -28q-8 -20 -19.5 -36t-40.5 -16h-125l-69 -321q-20 -91 -63.5 -164.5t-108.5 -125
t-150.5 -79.5t-189.5 -28q-89 0 -165.5 22.5t-132 67.5t-87 113.5t-31.5 160.5q0 85 27 156t72 125.5t104.5 92.5t124.5 56q-65 31 -101.5 92t-36.5 152q0 94 34 166t90.5 120t130 72.5t151.5 24.5q75 0 126.5 -12.5t92.5 -30.5q20 -9 26.5 -18t6.5 -17q0 -22 -14 -47
q-10 -17 -20 -30t-26 -13q-15 0 -27 6.5t-34 15.5q-22 10 -56.5 19.5t-97.5 9.5q-46 0 -90 -17t-79 -51.5t-56.5 -86t-21.5 -119.5q0 -91 67 -140t182 -49h588q17 0 25 -4t8 -16z" />
    <glyph glyph-name="quotesingle" unicode="'" horiz-adv-x="377" 
d="M551 1348q0 -13 -2.5 -23l-5.5 -22l-84 -349q-2 -11 -6 -19t-12.5 -14t-21.5 -9t-34 -3q-20 0 -32 2.5t-18.5 6.5t-8.5 8.5t-2 9.5q0 8 2.5 22.5t5.5 28.5l63 344q3 16 8 24t13 13t23.5 8.5t41.5 3.5q42 0 56 -9t14 -23z" />
    <glyph glyph-name="parenleft" unicode="(" horiz-adv-x="643" 
d="M868 1282q0 -6 -6.5 -13.5t-32.5 -21.5q-133 -71 -229 -182.5t-158.5 -248t-92.5 -288t-30 -301.5q0 -146 36 -262t102 -203q8 -11 19.5 -21.5t21.5 -20.5t17 -19t7 -16q0 -14 -6 -24t-20 -26q-16 -17 -30 -29t-28 -12q-12 0 -21.5 7.5t-31.5 27.5q-44 41 -82.5 98
t-67.5 133t-46 171.5t-17 214.5q0 113 17.5 227t51.5 221.5t83.5 207t114 185t143 153.5t170.5 114q21 11 33.5 15.5t23.5 4.5t20 -6t21 -29t15 -37.5t3 -19.5z" />
    <glyph glyph-name="parenright" unicode=")" horiz-adv-x="641" 
d="M674 725q0 -114 -17.5 -227.5t-51.5 -221.5t-83.5 -207.5t-114 -184.5t-143 -153.5t-170.5 -113.5q-21 -11 -33.5 -15.5t-23.5 -4.5t-20 5.5t-21 28.5t-15.5 38t-3.5 20q0 6 6.5 13.5t32.5 21.5q89 47 161 113t129 146t98.5 171.5t68.5 189t40 198.5t13 201
q0 147 -35.5 263t-101.5 202q-8 11 -19.5 22t-21.5 21t-17 19t-7 16q0 14 6 24t20 25q16 17 30 29t28 12q12 0 21.5 -7.5t31.5 -27.5q44 -41 82.5 -98t67.5 -132.5t46 -171.5t17 -214z" />
    <glyph glyph-name="asterisk" unicode="*" horiz-adv-x="838" 
d="M975 1081q0 -14 -6 -21.5t-23 -12.5l-239 -68l159 -197q13 -16 13 -26q0 -11 -9 -21.5t-30 -25.5q-31 -25 -54 -25q-19 0 -36 29l-125 198l-127 -198q-10 -16 -19 -22.5t-18 -6.5q-24 0 -53 25q-22 15 -30.5 25.5t-8.5 21.5t12 26l160 197l-240 68q-17 5 -23 12.5
t-6 21.5q0 5 2 17t9 30q15 50 43 50q9 0 17.5 -3t21.5 -8l204 -86l-16 248q-2 14 1.5 21t8.5 12q6 5 18 8.5t40 3.5q27 0 40 -3.5t19 -8.5q5 -5 8.5 -12t1.5 -21l-14 -248l207 86q12 5 20.5 8t18.5 3q26 0 43 -50q6 -18 8 -30t2 -17z" />
    <glyph glyph-name="plus" unicode="+" 
d="M1030 633q0 -28 -3.5 -37t-8.5 -14t-12 -8t-21 -3h-307v-327q0 -14 -2.5 -21t-7.5 -12t-16.5 -8.5t-39.5 -3.5t-38 3.5t-15 8.5t-7.5 12t-2.5 21v327h-307q-14 0 -21 3t-12 8t-8.5 14t-3.5 37t3.5 38t8.5 15t12 7.5t21 2.5h307v332q0 14 2.5 21t7.5 12t15 8.5t38 3.5
t39.5 -3.5t16.5 -8.5t7.5 -12t2.5 -21v-332h307q14 0 21 -2.5t12 -7.5t8.5 -15t3.5 -38z" />
    <glyph glyph-name="comma" unicode="," horiz-adv-x="371" 
d="M324 199q0 -10 -3.5 -17t-11.5 -22l-166 -307q-12 -23 -27 -30t-50 -7q-36 0 -44 6.5t-8 15.5q0 8 5 20.5t10 24.5l131 307q10 25 31 31t65 6q23 0 36.5 -2.5t20.5 -6.5t9 -9t2 -10z" />
    <glyph glyph-name="hyphen" unicode="-" horiz-adv-x="709" 
d="M724.5 475q-2.5 -11 -6.5 -23t-8.5 -23t-7.5 -17q-11 -22 -21.5 -33.5t-35.5 -11.5h-446q-20 0 -25.5 8.5t-5.5 17.5q0 6 2.5 17t6.5 23t8.5 23t7.5 17q11 22 21.5 33.5t35.5 11.5h446q20 0 25.5 -8.5t5.5 -17.5q0 -6 -2.5 -17z" />
    <glyph glyph-name="hyphen" unicode="&#xad;" horiz-adv-x="709" 
d="M724.5 475q-2.5 -11 -6.5 -23t-8.5 -23t-7.5 -17q-11 -22 -21.5 -33.5t-35.5 -11.5h-446q-20 0 -25.5 8.5t-5.5 17.5q0 6 2.5 17t6.5 23t8.5 23t7.5 17q11 22 21.5 33.5t35.5 11.5h446q20 0 25.5 -8.5t5.5 -17.5q0 -6 -2.5 -17z" />
    <glyph glyph-name="period" unicode="." horiz-adv-x="379" 
d="M315 92q0 -22 -8.5 -41.5t-23 -34.5t-33 -23.5t-39.5 -8.5t-39.5 8.5t-32.5 23.5t-22 34.5t-8 41.5t8 42.5t22 35.5t32.5 24t39.5 9t39.5 -9t33 -24t23 -35.5t8.5 -42.5z" />
    <glyph glyph-name="slash" unicode="/" horiz-adv-x="612" 
d="M887 1348q-2 -8 -8 -20t-11 -21l-721 -1278q-12 -22 -27 -25.5t-46 -3.5q-35 0 -48 7t-10 18q2 8 8 19.5t11 21.5l721 1277q12 22 30.5 25.5t49.5 3.5q35 0 44 -6.5t7 -17.5z" />
    <glyph glyph-name="zero" unicode="0" 
d="M918 897q0 131 -46 201.5t-139 70.5q-65 0 -123 -36.5t-107.5 -104.5t-89 -165.5t-65.5 -219.5q-15 -75 -25 -146.5t-10 -125.5q0 -131 46.5 -201t140.5 -70q64 0 122.5 35t107.5 101.5t88 162.5t65 219q15 76 25 150.5t10 128.5zM1063 877q0 -108 -29 -242
q-34 -160 -89 -282t-126 -205t-155.5 -125.5t-176.5 -42.5q-76 0 -135.5 26t-100.5 77.5t-62.5 127.5t-20.5 176q0 106 29 240q34 160 89.5 283.5t128 208t158 128t179.5 43.5q72 0 130 -26.5t98.5 -78.5t62 -129.5t20.5 -178.5z" />
    <glyph glyph-name="one" unicode="1" 
d="M874 1264q0 -13 -2.5 -25.5t-5.5 -26.5l-252 -1185q-3 -14 -16 -24.5t-51 -10.5q-25 0 -37.5 2.5t-20.5 7.5q-8 8 -8 18q0 11 6 35l218 1020l-271 -198q-11 -8 -21.5 -15.5t-23.5 -7.5q-12 0 -21.5 9t-15.5 20t-11 21t-5 20q0 9 6.5 18.5t22.5 22.5l399 297
q22 17 37 22.5t35 5.5q23 0 30.5 -8.5t7.5 -17.5z" />
    <glyph glyph-name="two" unicode="2" 
d="M1012 997q0 -93 -39.5 -178t-104.5 -165t-148.5 -157t-172.5 -155q-62 -54 -124.5 -106.5t-125.5 -106.5h526q17 0 22 -6t5 -14q0 -6 -2.5 -16.5t-6 -21t-7 -19.5t-5.5 -13q-9 -22 -20 -30.5t-33 -8.5h-653q-22 0 -31.5 7t-9.5 26q0 9 2 22t6 26.5t11 26t16 21.5l223 193
q145 125 244.5 217.5t160.5 168t88 140.5t27 135q0 46 -14 80.5t-38.5 57.5t-58 34.5t-71.5 11.5q-29 0 -51 -3t-40.5 -9.5t-36 -16t-38.5 -22.5q-16 -10 -35 -24.5t-37 -28t-34 -23.5t-25 -10q-14 0 -25.5 10t-19.5 19t-14.5 21.5t-6.5 21.5q0 11 10.5 25.5t34.5 35.5
q25 22 60 44.5t77.5 41t92 30t104.5 11.5q69 0 127.5 -20t101 -57.5t66 -92t23.5 -123.5z" />
    <glyph glyph-name="three" unicode="3" 
d="M989 1038q0 -55 -15.5 -104.5t-50.5 -92.5t-91.5 -79.5t-139.5 -65.5q42 -8 78.5 -28t62.5 -50.5t41 -72t15 -92.5q0 -94 -30 -169t-81.5 -133t-119.5 -100t-143.5 -69t-154 -39.5t-151.5 -12.5q-31 0 -52 1t-34.5 3t-21 4.5t-11.5 4.5q-6 5 -9 10t-3 16q0 5 1.5 17.5
t6.5 29.5t16.5 31t40.5 14q10 0 24.5 -0.5t28.5 -0.5t26 -0.5t18 -0.5q50 0 107 8.5t112.5 27t106 48t89 71.5t61.5 97t23 125q0 102 -70.5 153.5t-195.5 51.5h-47q-9 0 -16 3.5t-7 12.5q0 7 2 13.5t5 17.5q5 16 12.5 33.5t15.5 28.5t16.5 13.5t22.5 2.5h23q64 0 125.5 14.5
t110 45t78.5 78t30 114.5q0 38 -13.5 67t-38.5 48t-59 28.5t-76 9.5q-69 0 -125.5 -20.5t-91.5 -42.5q-29 -19 -48.5 -32t-35.5 -13q-17 0 -25.5 13t-15.5 26q-5 8 -9.5 18.5t-4.5 20.5q0 11 12.5 23t44.5 32q19 12 48 28t70 30.5t94 25t120 10.5q65 0 120 -17t94.5 -49.5
t62 -79.5t22.5 -106z" />
    <glyph glyph-name="four" unicode="4" 
d="M311 449h387l127 593zM1004 1262q0 -10 -5 -32.5t-16 -72.5l-152 -708h130q32 0 32 -19q0 -9 -4 -23.5t-10 -29.5q-8 -20 -19 -32.5t-40 -12.5h-113l-78 -367q-3 -14 -13 -24.5t-48 -10.5q-48 0 -64 11q-8 8 -8 18q0 9 6 35l72 338h-508q-20 0 -27.5 7.5t-7.5 22.5
q0 14 6 37t25 43l702 809q20 23 43 31t47 8q32 0 41 -8.5t9 -19.5z" />
    <glyph glyph-name="five" unicode="5" 
d="M1067 1249q0 -6 -2.5 -16.5t-6 -21.5t-7 -20t-4.5 -13q-10 -22 -21 -30.5t-33 -8.5h-456l-91 -336q129 0 218.5 -25t145 -70.5t80.5 -108.5t25 -138q0 -96 -28.5 -172.5t-78.5 -135.5t-118 -101t-146 -69.5t-162.5 -40t-168.5 -12.5q-81 0 -100 11q-15 8 -15 26
q0 8 1.5 15.5t4.5 19.5q7 25 13 36t20 17q6 3 16 4.5t33 1.5q10 0 29 -1t41 -1q91 0 182 24t164.5 71.5t119.5 119.5t46 168q0 56 -19.5 100.5t-60.5 75.5t-105.5 47.5t-154.5 16.5h-68q-24 0 -37.5 7.5t-13.5 23.5q0 8 2.5 22.5t7.5 30.5l123 467q5 20 19.5 28.5t48.5 8.5
h530q17 0 22 -6.5t5 -14.5z" />
    <glyph glyph-name="six" unicode="6" 
d="M864 492q0 43 -12 85t-40 76t-72.5 55t-108.5 21q-68 0 -128 -33.5t-105.5 -88.5t-72.5 -126.5t-28 -146.5q0 -45 12 -89t39 -78.5t70.5 -55.5t107.5 -21q68 0 129 31.5t107 86t73.5 128t28.5 156.5zM1008 510q0 -85 -20 -156.5t-55.5 -130.5t-83 -104t-102.5 -75.5
t-114.5 -46t-118.5 -15.5q-78 0 -142.5 24.5t-110.5 71t-71.5 113.5t-25.5 151q0 114 38 228t103 222t151 207t181 183q65 57 106.5 86.5t57.5 40.5q11 7 20.5 13t21 9.5t26.5 5.5t38 2q19 0 30.5 -1t17.5 -2.5t8 -2.5l4 -2q8 -5 8 -16q0 -8 -8 -17.5t-31 -27.5
q-46 -35 -105 -78t-126 -104t-140.5 -144.5t-148.5 -198.5q40 36 108.5 64.5t159.5 28.5q68 0 127.5 -21t103 -62.5t68.5 -102.5t25 -142z" />
    <glyph glyph-name="seven" unicode="7" 
d="M1108 1237q0 -20 -8 -41.5t-21 -44.5l-639 -1165q-16 -33 -32 -43q-8 -5 -22 -9t-40 -4q-43 0 -57 9q-5 3 -7.5 6.5t-2.5 11.5q0 12 12 35l647 1149h-610q-17 0 -22 6t-5 14q0 6 2.5 16.5t6 21t7 19.5t5.5 13q9 22 20 30.5t33 8.5h694q22 0 30.5 -9t8.5 -24z" />
    <glyph glyph-name="eight" unicode="8" 
d="M827 401q0 50 -17 91t-48 70t-75.5 45t-98.5 16q-65 0 -122 -24t-99.5 -66t-67.5 -99t-25 -123q0 -52 18 -93t50 -69.5t77.5 -43.5t100.5 -15q62 0 117.5 22t97.5 63t66.5 98t25.5 128zM928 991q0 44 -16 79.5t-45 61t-70 39t-92 13.5q-56 0 -105.5 -17.5t-86.5 -51.5
t-58.5 -82.5t-22.5 -110.5q0 -39 14.5 -73t41.5 -59.5t66 -40t87 -14.5q56 0 108 18t91.5 51.5t63.5 81t24 105.5zM1059 1010q0 -64 -19.5 -117.5t-53.5 -97t-78.5 -76t-94.5 -53.5q32 -16 61 -40.5t50.5 -57t34 -73.5t12.5 -89q-1 -96 -36.5 -174.5t-97.5 -134.5
t-145 -86.5t-178 -30.5q-84 0 -153.5 22t-118.5 63t-76 101t-27 135q0 73 21 135.5t59.5 112.5t93 87t121.5 60q-68 44 -98.5 104t-30.5 128q0 84 33.5 151.5t90 114t130 71.5t154.5 25q78 0 142 -18.5t109.5 -54.5t70 -88t24.5 -119z" />
    <glyph glyph-name="nine" unicode="9" 
d="M944 944q0 45 -12 89t-39 78.5t-70.5 55.5t-107.5 21q-68 0 -128.5 -31.5t-107 -86t-74 -128t-28.5 -156.5q0 -43 12 -85.5t40 -76t72 -54.5t109 -21q68 0 128.5 33.5t106 88.5t72 126.5t27.5 146.5zM1077 936q0 -114 -38 -228.5t-103 -222.5t-151 -206.5t-181 -182.5
q-65 -57 -106.5 -86.5t-57.5 -40.5q-11 -8 -20.5 -13.5t-21 -9t-26.5 -5.5t-38 -2q-19 0 -30 1t-17 2.5t-8.5 2.5t-4.5 2q-8 5 -8 16q0 8 8 17.5t31 27.5q46 34 105 77.5t126 104.5t140.5 144.5t148.5 197.5q-20 -18 -47.5 -34.5t-61 -29t-74 -20.5t-85.5 -8
q-68 0 -127.5 21t-103 62.5t-68.5 102.5t-25 142q0 84 20.5 156t55.5 131t83 104t102.5 75.5t114 46t118.5 15.5q78 0 142.5 -24.5t110.5 -71t71.5 -113.5t25.5 -151z" />
    <glyph glyph-name="colon" unicode=":" horiz-adv-x="383" 
d="M315 92q0 -22 -8.5 -41.5t-23 -34.5t-33 -23.5t-39.5 -8.5t-39.5 8.5t-32.5 23.5t-22 34.5t-8 41.5t8 42.5t22 35.5t32.5 24t39.5 9t39.5 -9t33 -24t23 -35.5t8.5 -42.5zM461 782q0 -22 -8.5 -41.5t-23 -34.5t-33.5 -23.5t-40 -8.5t-39.5 8.5t-32.5 23.5t-22 34.5
t-8 41.5t8 42.5t22 35.5t32.5 24t39.5 9t40 -9t33.5 -24t23 -35.5t8.5 -42.5z" />
    <glyph glyph-name="semicolon" unicode=";" horiz-adv-x="371" 
d="M460.5 740.5q-8.5 -19.5 -23 -34.5t-33 -23.5t-39.5 -8.5t-39.5 8.5t-33 23.5t-22.5 34.5t-8 41.5t8 42.5t22.5 35.5t33 24t39.5 9t39.5 -9t33 -24t23 -35.5t8.5 -42.5t-8.5 -41.5zM320.5 182q-3.5 -7 -11.5 -22l-166 -307q-12 -23 -27 -30t-50 -7q-36 0 -44 6.5t-8 15.5
q0 8 5 20.5t10 24.5l131 307q10 25 31 31t65 6q23 0 36.5 -2.5t20.5 -6.5t9 -9t2 -10q0 -10 -3.5 -17z" />
    <glyph glyph-name="semicolon" unicode="&#x37e;" horiz-adv-x="371" 
d="M460.5 740.5q-8.5 -19.5 -23 -34.5t-33 -23.5t-39.5 -8.5t-39.5 8.5t-33 23.5t-22.5 34.5t-8 41.5t8 42.5t22.5 35.5t33 24t39.5 9t39.5 -9t33 -24t23 -35.5t8.5 -42.5t-8.5 -41.5zM320.5 182q-3.5 -7 -11.5 -22l-166 -307q-12 -23 -27 -30t-50 -7q-36 0 -44 6.5t-8 15.5
q0 8 5 20.5t10 24.5l131 307q10 25 31 31t65 6q23 0 36.5 -2.5t20.5 -6.5t9 -9t2 -10q0 -10 -3.5 -17z" />
    <glyph glyph-name="less" unicode="&#x3c;" 
d="M1022 297q0 -41 -8.5 -52.5t-22.5 -11.5q-9 0 -15.5 1.5t-23.5 9.5l-727 303q-26 11 -33.5 31t-7.5 55q0 37 7.5 57t33.5 31l727 307q17 8 23.5 9t15.5 1q14 0 22.5 -11t8.5 -52q0 -19 -1.5 -31.5t-5 -20.5t-10.5 -13t-18 -9l-643 -268l643 -262q11 -5 18 -10t10.5 -13
t5 -20t1.5 -31z" />
    <glyph glyph-name="equal" unicode="=" 
d="M1028 473q0 -28 -3.5 -37t-8.5 -14t-12 -7.5t-21 -2.5h-743q-14 0 -21 2.5t-12 7.5t-8.5 14t-3.5 37t3.5 38t8.5 15t12 8t21 3h743q14 0 21 -3t12 -8t8.5 -15t3.5 -38zM1028 797q0 -28 -3.5 -37.5t-8.5 -14.5t-12 -7.5t-21 -2.5h-743q-14 0 -21 2.5t-12 7.5t-8.5 14.5
t-3.5 37.5t3.5 38t8.5 15t12 7.5t21 2.5h743q14 0 21 -2.5t12 -7.5t8.5 -15t3.5 -38z" />
    <glyph glyph-name="greater" unicode="&#x3e;" 
d="M1038 633q0 -35 -7.5 -55t-33.5 -31l-727 -303q-17 -8 -23 -9.5t-16 -1.5q-14 0 -22 11.5t-8 52.5q0 19 1.5 31t5 20t10.5 13t18 10l643 262l-643 268q-11 4 -18 9t-10.5 13t-5 20.5t-1.5 31.5q0 41 8 52t22 11q10 0 16 -1t23 -9l727 -307q26 -11 33.5 -31t7.5 -57z" />
    <glyph glyph-name="question" unicode="?" horiz-adv-x="745" 
d="M395 90q0 -21 -8.5 -40.5t-23 -34t-33 -23t-39.5 -8.5q-20 0 -38.5 8.5t-33 23t-23 34t-8.5 40.5q1 21 9.5 41t23 35t33 24t39.5 9q20 0 38.5 -9t33 -24t23 -35t7.5 -41zM901 1069q0 -71 -18.5 -127.5t-50 -100t-73.5 -76.5t-89.5 -56.5t-98 -40t-98.5 -27.5l-49 -235
q-3 -14 -16 -24.5t-52 -10.5q-24 0 -36.5 2.5t-20.5 7.5q-8 8 -8 18q0 11 6 35l55 271q4 24 17.5 33t48.5 16q81 13 144.5 39t107.5 65t67 90.5t23 116.5q0 39 -13 75t-39.5 63.5t-66 44t-92.5 16.5q-41 0 -70 -3.5t-50.5 -9t-37.5 -11.5t-31 -11q-18 -8 -27 -10t-16 -2
q-15 0 -22 14.5t-12 28.5q-5 17 -6 25.5t-1 14.5q0 8 8 19.5t40 23.5q35 14 91.5 25.5t141.5 11.5t149.5 -24.5t107.5 -66.5t65 -99t22 -121z" />
    <glyph glyph-name="at" unicode="@" horiz-adv-x="1608" 
d="M1133 694q-16 9 -32.5 17t-37 13t-46 8t-59.5 3q-47 0 -85 -13t-68.5 -35.5t-55 -52.5t-42.5 -65q-13 -23 -23 -51t-16.5 -56.5t-9.5 -55t-3 -46.5q0 -32 7.5 -64t26.5 -57.5t51.5 -41t82.5 -15.5t94 28t79 73t60.5 103t37.5 118zM1606 584q0 -88 -19 -161.5t-59 -152.5
q-28 -53 -66 -92.5t-81.5 -66t-89 -39.5t-87.5 -13q-50 0 -81 10.5t-48.5 27.5t-24.5 38.5t-10 42.5q-27 -28 -56 -50t-61 -37.5t-69 -23.5t-82 -8q-64 0 -112 23.5t-80.5 63t-49 92t-16.5 110.5q0 37 3.5 70t11.5 65.5t20.5 65t30.5 67.5q23 46 60 89.5t88 77t115 53.5
t140 20q58 0 104.5 -8t81 -18.5t55.5 -21.5t29 -17q11 -8 15.5 -19t-0.5 -33l-88 -434l-5 -25t-4 -18t-2 -13v-9q0 -21 7.5 -33.5t18 -18.5t23 -8t21.5 -2q46 0 89 31.5t76 86.5t53 129t20 159q0 106 -37 194.5t-106.5 152.5t-169 99t-224.5 35q-151 0 -263 -53.5
t-185.5 -140t-109.5 -195t-36 -219.5q0 -135 41 -247.5t118.5 -193.5t190 -126t256.5 -44q39 0 79.5 4t83.5 12t90 21.5t100 32.5q40 14 64.5 27t41.5 22q11 6 18 8t13 2q8 0 18.5 -5.5t24.5 -28.5q11 -17 14.5 -28t3.5 -19q0 -7 -3 -14.5t-15 -16.5q-13 -10 -36 -22.5
t-54 -26.5q-85 -39 -195.5 -67t-247.5 -28q-131 -1 -237 29t-188 82t-142 122.5t-98.5 153t-57 172t-18.5 179.5q0 95 23 186.5t67 173.5t107.5 150.5t144.5 118.5t178.5 78t208.5 28q158 0 282 -48t209.5 -130.5t130 -193.5t44.5 -236z" />
    <glyph glyph-name="A" unicode="A" horiz-adv-x="1108" 
d="M813 1233l-387 -719h471zM1104 25q0 -16 -15.5 -24.5t-58.5 -8.5q-34 0 -45.5 3.5t-17.5 8.5q-5 5 -9 13.5t-6 25.5l-41 352h-549l-190 -354q-8 -14 -14 -24t-13 -13q-9 -6 -21.5 -9t-41.5 -3q-37 0 -51.5 7.5t-14.5 18.5q0 7 4.5 16.5t10.5 20.5l719 1288q7 12 13 20
t15.5 13t24 7.5t37.5 2.5q27 0 42.5 -2.5t24.5 -8.5t13 -15.5t6 -24.5l174 -1267q2 -13 3 -23.5t1 -19.5z" />
    <glyph glyph-name="B" unicode="B" horiz-adv-x="1200" 
d="M1030 467q0 109 -62 159t-184 50h-338l-116 -551h340q83 0 149.5 26t113.5 72t72 108.5t25 135.5zM1104 1075q0 33 -9.5 64t-34 55t-68 38.5t-111.5 14.5h-314l-94 -446h309q85 0 146 22t100 59.5t57.5 87.5t18.5 105zM1253 1087q0 -59 -17.5 -112t-50 -97.5t-78.5 -80
t-103 -58.5q37 -12 69.5 -34.5t57 -56t39 -79.5t14.5 -104q0 -104 -37.5 -189.5t-106.5 -147t-166.5 -95t-216.5 -33.5h-424q-29 0 -45 8t-16 27q0 8 1 16.5t3 18.5l264 1245q3 15 9 26t14 17t20 10t41 4h367q180 0 271 -71t91 -214z" />
    <glyph glyph-name="C" unicode="C" horiz-adv-x="1051" 
d="M1276 1290q0 -8 -3.5 -19.5t-17.5 -33.5q-14 -23 -24 -32t-23 -9q-11 0 -39.5 12.5t-66.5 26.5q-35 12 -84.5 23.5t-120.5 11.5q-58 0 -119.5 -19.5t-120 -60t-110.5 -101t-91 -143t-62 -187t-23 -231.5q0 -213 93 -317.5t259 -104.5q46 0 85.5 5.5t70 12.5t52.5 14.5
t34 11.5q20 8 35.5 14t27.5 6t21.5 -6t21.5 -31q8 -17 11 -31.5t3 -25.5q0 -14 -12.5 -25.5t-52.5 -25.5q-50 -19 -126 -36.5t-189 -17.5q-111 0 -201.5 36t-155 106t-100 174t-35.5 241q0 138 27 251t69 201.5t92.5 152.5t96.5 106q89 81 198.5 121.5t218.5 40.5
q62 0 113 -7t90.5 -17.5t67.5 -21.5t43 -20q26 -14 36.5 -24t10.5 -21z" />
    <glyph glyph-name="D" unicode="D" horiz-adv-x="1311" 
d="M1223 866q0 190 -90.5 285.5t-268.5 95.5h-291l-237 -1122h301q80 0 154.5 25t139.5 71.5t118.5 112.5t92 148.5t60 179.5t21.5 204zM1382 881q0 -131 -29 -247t-80 -214t-120.5 -176t-150.5 -132t-169.5 -83t-177.5 -29h-419q-29 0 -45.5 8t-16.5 27q0 8 1 16.5t3 18.5
l264 1245q3 15 9 26t14 17t20 10t41 4h363q114 0 205.5 -30.5t155.5 -92t98 -153.5t34 -215z" />
    <glyph glyph-name="E" unicode="E" horiz-adv-x="1032" 
d="M1260 1352q0 -6 -2.5 -17t-6.5 -22t-7.5 -20t-4.5 -13q-9 -22 -20.5 -30.5t-32.5 -8.5h-617l-92 -428h545q17 0 22 -6t5 -14q0 -6 -2.5 -17t-6.5 -22t-7.5 -20t-4.5 -13q-9 -22 -20 -30.5t-33 -8.5h-524l-117 -551h645q17 0 22 -6t5 -14q0 -6 -2.5 -17t-6.5 -22t-7.5 -20
t-4.5 -13q-9 -22 -20 -30.5t-33 -8.5h-699q-29 0 -45 8t-16 27q0 8 1 16.5t3 18.5l264 1245q3 15 9 26t14 17t20 10t41 4h709q17 0 22 -6t5 -14z" />
    <glyph glyph-name="F" unicode="F" horiz-adv-x="981" 
d="M1241 1352q0 -6 -2.5 -17t-6 -22t-7 -20t-4.5 -13q-10 -22 -21 -30.5t-33 -8.5h-592l-92 -428h521q17 0 21.5 -6t4.5 -14q0 -6 -2.5 -17t-6 -22t-7 -20t-4.5 -13q-10 -22 -21 -30.5t-33 -8.5h-499l-140 -655q-3 -16 -17.5 -25.5t-55.5 -9.5q-26 0 -40 2.5t-22 7.5
q-10 7 -10 21q0 10 6 34l266 1258q8 31 23 43q8 6 20 10t41 4h686q17 0 22 -6t5 -14z" />
    <glyph glyph-name="G" unicode="G" horiz-adv-x="1266" 
d="M1335 1278q0 -9 -2.5 -19t-19.5 -34q-17 -25 -28.5 -33t-20.5 -8q-10 0 -16.5 3.5t-12.5 6.5q-8 5 -30 16t-44 19q-29 11 -87.5 25t-139.5 14q-100 0 -185.5 -36t-153 -104.5t-115 -168.5t-70.5 -228q-4 -21 -7 -42t-5.5 -45t-3.5 -51.5t-1 -62.5q-1 -88 22 -166.5
t68.5 -137t114 -92.5t158.5 -34q53 0 94 4t73 10t56 13.5t43 15.5l90 420h-268q-17 0 -22 6.5t-5 14.5q0 6 2 15t4.5 18t5.5 16.5t5 11.5q9 22 20 31.5t33 9.5h342q29 0 38 -8.5t9 -18.5q0 -6 -1.5 -13.5l-4.5 -22.5l-109 -512q-6 -29 -20 -44.5t-45 -29.5
q-72 -31 -161 -48.5t-202 -17.5q-114 0 -205.5 41.5t-156 114.5t-99.5 173.5t-34 217.5q0 24 0.5 49.5t2.5 54.5t7 64t14 78q33 157 99.5 276t158 199t204 121t237.5 41q73 0 132.5 -11t103.5 -25t71.5 -28t36.5 -20q18 -13 24 -22t6 -17z" />
    <glyph glyph-name="H" unicode="H" horiz-adv-x="1309" 
d="M1430 1350q0 -5 -2 -14t-5 -21l-274 -1288q-3 -16 -18 -25.5t-56 -9.5q-26 0 -39.5 2.5t-21.5 7.5q-10 7 -10 21q0 10 6 34l133 625h-686l-140 -655q-3 -16 -17.5 -25.5t-55.5 -9.5q-26 0 -40 2.5t-22 7.5q-10 7 -10 21q0 10 6 34l275 1289q3 15 17.5 24.5t55.5 9.5
q26 0 40 -2.5t22 -7.5q10 -8 10 -20q0 -11 -6 -35l-109 -508h686l115 539q3 15 18 24.5t56 9.5q26 0 39.5 -2.5t21.5 -7.5q11 -8 11 -20z" />
    <glyph glyph-name="I" unicode="I" horiz-adv-x="477" 
d="M598 1350q0 -11 -6 -35l-275 -1288q-3 -16 -17.5 -25.5t-55.5 -9.5q-26 0 -40 2.5t-22 7.5q-10 7 -10 21q0 10 6 34l275 1289q3 15 17.5 24.5t55.5 9.5q26 0 40 -2.5t22 -7.5q10 -8 10 -20z" />
    <glyph glyph-name="J" unicode="J" horiz-adv-x="889" 
d="M1020 1350q0 -11 -6 -35l-203 -946q-25 -113 -62.5 -183.5t-86.5 -113.5q-63 -56 -133.5 -78.5t-151.5 -22.5q-71 0 -126 12.5t-94 29t-62 32t-29 21.5q-13 11 -16 18.5t-3 13.5t3.5 20t17.5 34q17 24 26 29t17 5q9 0 24 -9.5t31 -20.5q11 -7 29.5 -18t44.5 -21
t59.5 -17.5t75.5 -7.5q67 0 116 20t83 56.5t56 88t36 114.5l208 975q4 15 18.5 24.5t55.5 9.5q26 0 40 -2.5t22 -7.5q10 -8 10 -20z" />
    <glyph glyph-name="K" unicode="K" horiz-adv-x="1145" 
d="M1309 1356q0 -8 -4 -14t-15 -15l-686 -614l520 -660q10 -11 12.5 -17.5t2.5 -12.5q0 -21 -27 -27q-6 -2 -19.5 -3t-37.5 -1q-45 0 -66.5 8t-34.5 25l-499 649l-138 -647q-3 -16 -17.5 -25.5t-55.5 -9.5q-26 0 -40 2.5t-22 7.5q-10 7 -10 21q0 10 6 34l275 1289
q3 15 17.5 24.5t55.5 9.5q26 0 40 -2.5t22 -7.5q10 -8 10 -20q0 -11 -6 -35l-119 -557l649 598q8 7 16 11.5t20 7.5t29.5 4t43.5 1q23 0 40 -1.5t23 -4.5q15 -5 15 -18z" />
    <glyph glyph-name="L" unicode="L" horiz-adv-x="948" 
d="M961 111q0 -6 -2.5 -17t-6.5 -22t-7.5 -20t-4.5 -13q-9 -22 -20.5 -30.5t-32.5 -8.5h-654q-29 0 -45 8t-16 27q0 8 1 16.5t3 18.5l270 1276q4 15 18.5 24.5t55.5 9.5q26 0 40 -2.5t22 -7.5q10 -8 10 -20q0 -11 -6 -35l-252 -1184h600q17 0 22 -6t5 -14z" />
    <glyph glyph-name="M" unicode="M" horiz-adv-x="1489" 
d="M1610 1350q0 -11 -1.5 -19.5t-4.5 -23.5l-273 -1280q-3 -16 -16.5 -25.5t-54.5 -9.5q-26 0 -39 2.5t-21 7.5q-10 7 -10 21q0 10 6 34l229 1084l-462 -598q-13 -16 -24 -25t-17 -14q-8 -5 -23.5 -8.5t-46.5 -3.5t-46 4.5t-22 9.5q-5 3 -13 13.5t-17 33.5l-213 545
l-228 -1071q-3 -16 -16.5 -25.5t-54.5 -9.5q-26 0 -39 2.5t-21 7.5q-10 7 -10 21q0 10 6 34l256 1205l-20 47q-6 12 -9.5 20.5t-3.5 18.5q0 15 15 23.5t61 8.5t65.5 -6.5t28.5 -27.5l297 -730l576 734q14 17 36 23.5t54 6.5q35 0 55.5 -6.5t20.5 -23.5z" />
    <glyph glyph-name="N" unicode="N" horiz-adv-x="1251" 
d="M1372 1350q0 -11 -6 -35l-272 -1278q-3 -14 -8 -21t-13 -12q-6 -5 -21 -8.5t-44 -3.5q-32 0 -46 9.5t-22 29.5l-403 1061l-226 -1065q-3 -16 -16.5 -25.5t-54.5 -9.5q-26 0 -38 2.5t-20 7.5q-10 7 -10 21q0 10 6 34l256 1207l-20 45q-6 12 -9.5 20.5t-3.5 18.5
q0 15 15 23.5t61 8.5q47 0 66.5 -6.5t27.5 -27.5l426 -1106l236 1106q3 15 16.5 24.5t55.5 9.5q26 0 37.5 -2.5t19.5 -7.5q10 -8 10 -20z" />
    <glyph glyph-name="O" unicode="O" horiz-adv-x="1335" 
d="M1251 907q1 86 -19 154.5t-59 116t-97.5 73t-135.5 25.5q-99 0 -184.5 -41t-154.5 -117t-120 -185t-80 -245q-12 -62 -19 -118t-7 -105q-1 -87 18.5 -155.5t59 -116t98.5 -72.5t137 -25q98 0 182.5 40t152.5 115.5t118.5 184t81.5 244.5q14 63 21 119t7 108zM1407 905
q0 -52 -8 -108.5t-21 -116.5q-37 -173 -105 -305.5t-160.5 -222t-205.5 -135.5t-239 -46q-104 0 -187.5 32.5t-142 95t-89.5 154t-30 210.5q0 52 6.5 107.5t20.5 117.5q37 173 106 306t162 223.5t206.5 137t240.5 46.5q103 0 185.5 -33t141 -96.5t89.5 -156t30 -210.5z" />
    <glyph glyph-name="P" unicode="P" horiz-adv-x="1102" 
d="M1094 1042q0 101 -63 153t-197 52h-263l-110 -522q31 -2 62.5 -3.5t61.5 -2.5t56.5 -1.5t46.5 -0.5q91 0 159.5 14.5t117 44.5t77.5 76t43 109q5 21 7 42t2 39zM1249 1057q0 -52 -12 -107q-18 -84 -59 -150.5t-108 -112t-160.5 -69.5t-217.5 -24q-29 0 -62 0.5t-66.5 2
t-66.5 2.5t-63 3l-121 -575q-3 -16 -15.5 -25.5t-53.5 -9.5q-26 0 -40 2.5t-22 7.5q-10 7 -10 21q0 10 6 34l266 1258q8 31 23 43q8 6 20 10t41 4h322q106 0 181.5 -23t124 -64.5t71 -99.5t22.5 -128z" />
    <glyph glyph-name="Q" unicode="Q" horiz-adv-x="1335" 
d="M1251 907q1 86 -19 154.5t-59 116t-97.5 73t-135.5 25.5q-99 0 -184.5 -41t-154.5 -117t-120 -185t-80 -245q-12 -62 -19 -118t-7 -105q-1 -87 18.5 -155.5t59 -116t98.5 -72.5t137 -25q98 0 182.5 40t152.5 115.5t118.5 184t81.5 244.5q14 63 21 119t7 108zM1407 905
q0 -52 -8 -108.5t-21 -116.5q-29 -137 -78.5 -249t-116 -197.5t-149 -144t-176.5 -89.5l244 -240q12 -12 16 -19t4 -13q0 -10 -3.5 -14t-8.5 -7q-6 -3 -20 -5.5t-54 -2.5q-28 0 -45 2.5t-28 7.5q-14 6 -27.5 16t-24.5 21l-200 227q-16 -2 -27 -2h-16q-104 0 -187.5 32.5
t-142 95t-89.5 154t-30 210.5q0 52 6.5 107.5t20.5 117.5q37 173 106 306t162 223.5t206.5 137t240.5 46.5q103 0 185.5 -33t141 -96.5t89.5 -156t30 -210.5z" />
    <glyph glyph-name="R" unicode="R" horiz-adv-x="1141" 
d="M1083 1042q0 100 -61.5 152.5t-198.5 52.5h-252l-110 -518q60 -6 117.5 -8t99.5 -2q91 0 159.5 14t116.5 44t77.5 75.5t43.5 108.5q5 21 6.5 42t1.5 39zM1239 1055q0 -52 -12 -107q-15 -68 -44.5 -125t-78 -101t-118 -74.5t-163.5 -45.5l291 -547q6 -12 10 -21.5t4 -17.5
q0 -14 -24 -20q-9 -2 -21 -3t-43 -1q-38 0 -58 7t-30 26l-276 569q-69 0 -126.5 2.5t-113.5 7.5l-123 -577q-3 -16 -15.5 -25.5t-53.5 -9.5q-26 0 -40 2.5t-22 7.5q-10 7 -10 21q0 10 6 34l266 1258q8 31 23 43q8 6 20 10t41 4h312q106 0 181.5 -23.5t124 -65.5t71 -100
t22.5 -128z" />
    <glyph glyph-name="S" unicode="S" horiz-adv-x="1040" 
d="M1159 1280q0 -19 -20 -53q-13 -20 -21 -28.5t-20 -8.5q-11 0 -19.5 3.5t-19.5 8.5q-35 16 -66.5 29t-67.5 22t-79.5 14t-102.5 5q-60 0 -119.5 -15.5t-106.5 -48t-76 -82.5t-29 -118q0 -42 14 -76t39 -60t60.5 -44.5t78.5 -30.5l182 -54q64 -18 114 -46t85.5 -67t54 -90
t19.5 -116q0 -84 -20 -150t-56 -116.5t-85.5 -86t-106.5 -58t-119 -32.5t-125 -10q-89 0 -159 13.5t-121.5 32.5t-85.5 39.5t-52 33.5q-22 16 -29.5 26t-7.5 19q0 8 3 19.5t16 29.5q14 20 26.5 32.5t26.5 12.5t29.5 -10t35.5 -24q14 -10 41.5 -26t66.5 -31t89 -25.5
t109 -10.5q64 0 130 13t120 46t88 89t34 143t-50 140t-144 79l-158 45q-139 41 -213 115.5t-74 196.5q0 111 43 192t113.5 134t160 78.5t181.5 25.5q118 0 204.5 -22.5t151.5 -57.5q16 -9 26.5 -18t10.5 -21z" />
    <glyph glyph-name="T" unicode="T" horiz-adv-x="1083" 
d="M1343 1352q0 -6 -2.5 -17t-6 -22t-7 -20t-4.5 -13q-9 -22 -20.5 -30.5t-32.5 -8.5h-393l-259 -1214q-3 -16 -17.5 -25.5t-55.5 -9.5q-26 0 -40 2.5t-22 7.5q-10 7 -10 21q0 10 6 34l252 1184h-416q-17 0 -21.5 6.5t-4.5 14.5q0 6 2.5 16.5t6 21.5t6.5 20t5 13
q10 22 21 30.5t32 8.5h955q17 0 21.5 -6t4.5 -14z" />
    <glyph glyph-name="U" unicode="U" horiz-adv-x="1288" 
d="M1423 1350q0 -11 -6 -35l-192 -905q-21 -99 -59.5 -179.5t-102.5 -138.5t-157.5 -89.5t-223.5 -31.5q-117 0 -200 26t-136.5 73t-78.5 112.5t-25 145.5q0 32 3 66t11 69l188 883q4 15 18.5 24.5t55.5 9.5q26 0 40 -2.5t22 -7.5q10 -8 10 -20q0 -11 -6 -35l-185 -862
q-6 -31 -8 -60t-2 -55q0 -56 15.5 -101t49.5 -76.5t88 -48t130 -16.5q87 0 154.5 18t118 57t84.5 100.5t52 148.5l197 926q3 15 17.5 24.5t56.5 9.5q26 0 39.5 -2.5t21.5 -7.5q10 -8 10 -20z" />
    <glyph glyph-name="V" unicode="V" horiz-adv-x="1106" 
d="M1382 1354q0 -6 -4 -16t-10 -21l-721 -1286q-7 -12 -13 -20t-15.5 -13t-24 -7.5t-37.5 -2.5q-27 0 -43 2.5t-25 8.5t-12.5 15.5t-5.5 24.5l-172 1268q-2 12 -3 22.5t-1 20.5q0 15 12 23.5t55 8.5q35 0 47.5 -3.5t18.5 -8.5q5 -5 8.5 -13.5t5.5 -25.5l148 -1141l627 1141
q8 14 14 24t14 15t20.5 7.5t41.5 2.5q40 0 57.5 -7.5t17.5 -18.5z" />
    <glyph glyph-name="W" unicode="W" horiz-adv-x="1575" 
d="M1851 1354q0 -6 -3.5 -16t-8.5 -21l-618 -1288q-6 -12 -12 -20t-16.5 -13t-26 -7.5t-40.5 -2.5t-40.5 2.5t-23.5 7.5t-11 13t-4 20l-62 884l-434 -884q-5 -12 -11.5 -20t-16.5 -13t-26 -7.5t-40 -2.5q-26 0 -41 2.5t-23.5 7.5t-11.5 13t-4 20l-80 1259q-2 20 -2 31v20
q0 8 1.5 15.5t7.5 13t18.5 9t33.5 3.5q34 0 46 -3.5t18 -8.5q5 -5 7.5 -13.5t4.5 -25.5l66 -1151l471 957l-11 153q-2 19 -2 32v23q0 16 12.5 26.5t55.5 10.5q34 0 44.5 -3.5t16.5 -8.5q5 -5 8 -14.5t5 -34.5l71 -1104l523 1116q13 30 28 39l8 4t11 3.5t17.5 2t27.5 0.5
q40 0 53.5 -7.5t13.5 -18.5z" />
    <glyph glyph-name="X" unicode="X" horiz-adv-x="1055" 
d="M1307 1356q-2 -5 -5 -11.5t-16 -21.5l-532 -627l274 -637q5 -11 7.5 -19t2.5 -17q0 -17 -20.5 -24t-54.5 -7q-36 0 -50.5 5.5t-21.5 22.5l-240 558l-473 -558q-15 -17 -36 -22.5t-56 -5.5q-43 0 -56.5 6.5t-13.5 15.5q0 5 2.5 11.5t12.5 17.5l565 662l-260 604
q-8 17 -11 26t-1 19q4 11 14 18q8 3 20 5.5t41 2.5q35 0 49.5 -6t22.5 -22l227 -527l451 527q15 17 34 22.5t54 5.5q25 0 41.5 -2.5t19.5 -5.5q7 -3 8 -8t1 -8z" />
    <glyph glyph-name="Y" unicode="Y" horiz-adv-x="1059" 
d="M1335 1356q-2 -5 -5 -11.5t-15 -21.5l-594 -733l-119 -563q-3 -16 -17.5 -25.5t-56.5 -9.5q-26 0 -39.5 2.5t-21.5 7.5q-10 7 -10 21q0 10 6 34l112 533l-266 719q-6 17 -10 26t-2 19q4 11 14 18q8 3 19.5 5.5t40.5 2.5q35 0 48 -5.5t19 -22.5l240 -631l506 631
q14 18 32.5 23t53.5 5q25 0 39.5 -2.5t17.5 -5.5q6 -3 7 -8t1 -8z" />
    <glyph glyph-name="Z" unicode="Z" horiz-adv-x="961" 
d="M1200 1339q0 -6 -0.5 -15t-5.5 -28q-5 -17 -12 -31.5t-21 -31.5l-928 -1102h701q17 0 22 -6t5 -14q0 -6 -2.5 -17t-6.5 -22t-7.5 -20t-4.5 -13q-9 -22 -20.5 -30.5t-32.5 -8.5h-811q-14 0 -22 2.5t-11 5.5q-5 5 -6.5 12t-1.5 13t0.5 15t5.5 28q5 17 12 31.5t21 31.5
l925 1102h-669q-17 0 -22 6.5t-5 14.5q0 6 2.5 16.5t6 21.5t7 20t5.5 13q9 22 20 30.5t33 8.5h782q14 0 22 -2.5t11 -5.5q5 -5 6.5 -11.5t1.5 -13.5z" />
    <glyph glyph-name="bracketleft" unicode="[" horiz-adv-x="584" 
d="M823 1350q0 -8 -2 -18.5t-8 -35.5q-6 -21 -15.5 -28.5t-31.5 -7.5h-184l-332 -1541h190q20 0 25.5 -8t5.5 -14q0 -8 -2 -18.5t-8 -34.5q-6 -22 -16 -29.5t-31 -7.5h-258q-32 0 -44.5 2t-15.5 8q-4 2 -4 10v9t2 12l361 1683q5 19 16.5 30t48.5 11h273q20 0 25 -8t5 -14z
" />
    <glyph glyph-name="backslash" unicode="\" horiz-adv-x="596" 
d="M594 25q-3 -11 -14.5 -18t-47.5 -7q-30 0 -44 3.5t-17 25.5l-176 1278q-2 9 -3 21t1 20q2 11 13 17.5t46 6.5q31 0 45 -3.5t17 -25.5l178 -1277q2 -10 3 -21.5t-1 -19.5z" />
    <glyph glyph-name="bracketright" unicode="]" horiz-adv-x="580" 
d="M698 1352v-9t-2 -12l-360 -1683q-5 -19 -17 -30t-49 -11h-272q-20 0 -25.5 8t-5.5 14q0 8 2 18.5t8 35.5q7 21 16.5 28.5t31.5 7.5h184l332 1541h-191q-20 0 -25.5 8t-5.5 14q0 8 2.5 18.5t8.5 34.5q6 22 15.5 29.5t31.5 7.5h258q32 0 44 -2t15 -8q4 -2 4 -10z" />
    <glyph glyph-name="asciicircum" unicode="^" horiz-adv-x="948" 
d="M938 573q0 -9 -10.5 -16.5t-48.5 -7.5q-39 0 -53 6.5t-21 28.5l-205 524l-209 -524q-5 -11 -9.5 -18t-12.5 -10.5t-20.5 -5t-31.5 -1.5q-38 0 -48.5 7.5t-10.5 16.5q0 10 3 18.5t9 22.5l250 617q11 26 30.5 32.5t47.5 6.5t47.5 -6.5t30.5 -32.5l250 -617q6 -14 9 -22.5
t3 -18.5z" />
    <glyph glyph-name="underscore" unicode="_" horiz-adv-x="1024" 
d="M10 -340v102h1024v-102h-1024z" />
    <glyph glyph-name="grave" unicode="`" horiz-adv-x="1024" 
d="M901 1034q0 -11 -10.5 -16.5t-42.5 -5.5q-25 0 -36 2.5t-19 7.5q-8 6 -15.5 14.5t-13.5 16.5l-139 200q-20 28 -28.5 42.5t-8.5 25.5q0 14 14.5 22.5t52.5 8.5q42 0 65.5 -7t37.5 -32l125 -234q8 -14 13 -25.5t5 -19.5z" />
    <glyph glyph-name="a" unicode="a" horiz-adv-x="991" 
d="M877 739q-36 25 -86 42.5t-119 17.5q-60 0 -109 -16.5t-88.5 -47t-71.5 -75t-57 -99.5q-23 -51 -35 -112.5t-12 -126.5q0 -40 9 -80.5t31.5 -72.5t60.5 -52.5t96 -20.5q43 0 81.5 17.5t71.5 47.5t61 70t50.5 85t38.5 92.5t26 91.5zM1018 801q0 -10 -2 -22t-4 -21
l-117 -555q-6 -29 -10 -57t-4 -42q0 -26 4 -41.5t4 -29.5t-15.5 -21t-33.5 -12q-20 -5 -31.5 -6.5t-22.5 -1.5q-14 0 -19.5 7.5t-10.5 18.5q-3 8 -7 25.5t-4 34.5q0 14 1.5 33.5t3.5 31.5q-66 -85 -137.5 -124t-163.5 -39q-71 0 -124.5 26t-89.5 70.5t-54.5 102t-18.5 120.5
q0 87 18 169.5t60 164.5q27 53 70 103.5t100.5 89.5t127.5 63t150 24q53 0 104 -9t93.5 -21.5t74 -27t44.5 -26.5q14 -11 14 -28z" />
    <glyph glyph-name="b" unicode="b" horiz-adv-x="995" 
d="M877 559q0 41 -9 83.5t-32 77.5t-62 57t-98 22q-79 0 -135.5 -40.5t-96.5 -107.5t-66.5 -153.5t-45.5 -178.5l-35 -167q31 -25 82 -44.5t123 -19.5q60 0 109 17.5t88.5 49t71 76.5t56.5 101q23 51 36.5 111t13.5 116zM1014 592q0 -49 -4.5 -91.5t-14.5 -82t-24.5 -77.5
t-34.5 -79q-26 -53 -70 -103.5t-102.5 -90.5t-129.5 -64t-151 -24q-48 0 -96.5 7.5t-91 19.5t-76 26t-51.5 28q-9 7 -11.5 13.5t-2.5 15.5q0 3 1 10t3 15l256 1202q3 15 7 23.5t9 13.5q8 8 20.5 12.5t26.5 7.5q16 3 26.5 4.5t24.5 1.5q27 0 27 -18q0 -5 -1 -11t-3 -14
l-119 -559q17 22 43.5 45.5t62 43.5t80.5 33t99 13q73 0 128.5 -27t93 -71.5t56.5 -102.5t19 -120z" />
    <glyph glyph-name="c" unicode="c" horiz-adv-x="774" 
d="M897 823q0 -17 -18 -45q-10 -15 -20.5 -28t-24.5 -13q-13 0 -24.5 6t-33.5 17q-23 12 -56.5 21.5t-90.5 9.5q-61 0 -120 -31t-105.5 -88.5t-75.5 -138t-29 -179.5q0 -57 14 -103t40 -78.5t63 -49.5t82 -17q49 0 88 9t65 20q28 11 46.5 21t33.5 10q16 0 24.5 -14t16.5 -29
q6 -14 9 -24t3 -21t-10.5 -20.5t-48.5 -26.5q-43 -19 -102 -35t-131 -16q-79 0 -140.5 25.5t-103.5 72t-64 113t-22 147.5q0 140 45 247.5t115.5 180t156.5 110t168 37.5q72 0 117 -11t82 -30q35 -17 43 -29t8 -20z" />
    <glyph glyph-name="d" unicode="d" horiz-adv-x="989" 
d="M877 739q-36 25 -86 42.5t-119 17.5q-60 0 -109 -16.5t-88.5 -47t-71.5 -75t-57 -99.5q-23 -51 -35 -112.5t-12 -126.5q0 -40 9 -80.5t31.5 -72.5t60.5 -52.5t96 -20.5q43 0 81.5 17.5t71.5 47.5t61 70t50.5 85t38.5 92.5t26 91.5zM1137 1362q0 -5 -1 -11t-3 -14
l-238 -1134q-6 -29 -10 -57t-4 -42q0 -26 4 -41.5t4 -29.5t-15.5 -21t-33.5 -12q-20 -5 -31.5 -6.5t-22.5 -1.5q-14 0 -19.5 7.5t-10.5 18.5q-3 8 -7 25.5t-4 34.5q0 14 1.5 33.5t3.5 31.5q-66 -85 -137.5 -124t-163.5 -39q-71 0 -124.5 26t-89.5 70.5t-54.5 102
t-18.5 120.5q0 87 18 169.5t60 164.5q27 53 70 103.5t99.5 89.5t125 63t145.5 24q37 0 71.5 -5.5t63 -13t49.5 -16t33 -14.5l98 453q3 15 7.5 23.5t9.5 13.5q8 8 20.5 12.5t26.5 7.5q15 3 26 4.5t25 1.5q27 0 27 -18z" />
    <glyph glyph-name="e" unicode="e" horiz-adv-x="846" 
d="M778 698q0 21 -6.5 41.5t-22 36t-40.5 25.5t-62 10q-66 0 -122.5 -31.5t-101 -83t-74.5 -118t-42 -136.5q138 8 228.5 37t144.5 67t76 79t22 73zM907 707q0 -160 -152 -255.5t-456 -121.5q1 -56 18.5 -98.5t46.5 -71t66.5 -42.5t77.5 -14q59 0 107.5 15.5t76.5 27.5
q14 7 25 12t20 5q14 0 23.5 -11t17.5 -26q13 -26 13 -43q0 -5 -2 -10t-8 -11t-18 -13.5t-32 -16.5q-43 -20 -98 -36.5t-135 -16.5q-57 0 -111 15t-96 46q-57 40 -92 115t-35 178q0 57 12 125q18 94 59.5 176.5t102.5 144t139.5 97.5t171.5 36q68 0 117 -15.5t80.5 -42.5
t46 -65t14.5 -83z" />
    <glyph glyph-name="f" unicode="f" horiz-adv-x="596" 
d="M977 1313q0 -8 -5.5 -23t-15.5 -30q-11 -19 -19 -25t-17 -6q-11 0 -26.5 5.5t-31.5 10.5q-17 5 -43.5 12t-58.5 7q-58 0 -97.5 -19.5t-66.5 -52.5t-43 -77.5t-27 -94.5l-26 -127h239q33 0 33 -16q0 -10 -4 -23t-10 -29q-8 -20 -19.5 -33.5t-40.5 -13.5h-223l-201 -944
q-3 -14 -16 -24.5t-51 -10.5q-25 0 -37 3t-20 8q-9 8 -9 18q0 9 6 35l195 915h-123q-33 0 -33 17q0 9 4.5 22t10.5 29q8 20 19 33.5t40 13.5h107l32 158q15 72 46 132.5t77 104t107.5 68t138.5 24.5q56 0 95.5 -7.5t68.5 -18.5q32 -13 38.5 -22.5t6.5 -18.5z" />
    <glyph glyph-name="g" unicode="g" horiz-adv-x="985" 
d="M872 739q-32 22 -83.5 41t-120.5 19q-60 0 -109 -16.5t-88.5 -47t-71.5 -75t-57 -99.5q-23 -51 -35 -112.5t-12 -126.5q0 -40 9 -80.5t31.5 -72.5t60.5 -52.5t96 -20.5q43 0 81.5 17.5t71.5 47.5t61 70t50.5 85t38.5 92.5t26 91.5zM1014 801q0 -10 -2 -22t-4 -21
l-156 -723q-18 -84 -36 -141t-37.5 -95t-41.5 -62.5t-47 -45.5q-28 -24 -59.5 -42.5t-69.5 -31t-85 -19t-105 -6.5q-45 0 -84.5 5.5t-71 13t-54 15.5t-32.5 14q-17 9 -25 15.5t-8 18.5q0 10 4 21.5t15 30.5q11 18 18.5 24t20.5 6q9 0 26.5 -7t34.5 -13q8 -3 23.5 -8.5
t37.5 -11t49.5 -9.5t59.5 -4q58 0 109 15t93.5 50t74.5 94t51 146l28 129q-63 -81 -134 -119t-163 -38q-71 0 -124.5 26t-89.5 70.5t-54 102t-18 120.5q0 87 18 169.5t60 164.5q27 53 70 103.5t100.5 89.5t127.5 63t150 24q53 0 104 -9t93.5 -21.5t73.5 -27t44 -26.5
q15 -11 15 -28z" />
    <glyph glyph-name="h" unicode="h" horiz-adv-x="1001" 
d="M989 670q0 -48 -8.5 -101t-24.5 -118l-61 -248q-8 -29 -12 -57t-4 -42q0 -26 4 -41.5t4 -29.5t-15.5 -21t-33.5 -12q-20 -5 -31.5 -6.5t-22.5 -1.5q-14 0 -20.5 6.5t-11.5 17.5q-3 8 -6 23.5t-3 44.5q0 20 4 50t13 65l69 284q11 47 17 92t6 70q0 45 -13 75t-34.5 48
t-50.5 25.5t-60 7.5q-51 0 -102.5 -21.5t-95.5 -60t-77 -91.5t-46 -116l-103 -485q-3 -14 -16 -24.5t-51 -10.5q-25 0 -37.5 2.5t-20.5 7.5q-8 8 -8 18q0 11 6 35l269 1262q3 15 7 23.5t9 13.5q8 8 20.5 12.5t26.5 7.5q16 3 26.5 4.5t24.5 1.5q27 0 27 -18q0 -5 -1 -11
t-3 -14l-119 -563q19 23 50 47.5t70 45t85 33.5t94 13q73 0 123 -22t81 -57t44 -78t12 -86z" />
    <glyph glyph-name="i" unicode="i" horiz-adv-x="408" 
d="M453 887q0 -5 -1 -11t-3 -14l-142 -659q-6 -29 -10 -57t-4 -42q0 -26 4 -41.5t4 -29.5t-15.5 -21t-33.5 -12q-20 -5 -31 -6.5t-22 -1.5q-14 0 -21 6.5t-12 17.5q-3 8 -5.5 23.5t-2.5 44.5q0 20 4 50t12 65l137 643q3 15 7.5 23.5t9.5 13.5q8 8 20.5 12.5t26.5 7.5
q15 3 26 4.5t25 1.5q27 0 27 -18zM551 1251q0 -46 -28.5 -75t-73.5 -29q-32 0 -54 21.5t-22 58.5q0 46 28 75t70 29q37 0 58.5 -21.5t21.5 -58.5z" />
    <glyph glyph-name="j" unicode="j" horiz-adv-x="424" 
d="M469 887q0 -5 -1 -11t-3 -14l-201 -958q-34 -159 -111 -234.5t-204 -75.5q-32 0 -56.5 3.5t-42 9t-28.5 10.5t-17 8q-14 8 -19 14.5t-5 14.5t3 16.5t9 24.5q6 15 13 24t18 9q9 0 23.5 -5t23.5 -8q19 -5 35 -7.5t39 -2.5q10 0 24 1.5t30 7t32.5 15t31.5 25.5q12 12 22 29
t19 41.5t18 58.5t19 80l187 879q3 15 7 23.5t9 13.5q8 8 20.5 12.5t26.5 7.5q16 3 26.5 4.5t24.5 1.5q27 0 27 -18zM567 1251q0 -46 -28.5 -75t-73.5 -29q-32 0 -54 21.5t-22 58.5q0 46 28 75t70 29q38 0 59 -21.5t21 -58.5z" />
    <glyph glyph-name="k" unicode="k" horiz-adv-x="860" 
d="M969 879q-2 -7 -8 -16t-25 -23l-432 -346l356 -439q13 -15 16 -22.5t1 -14.5q-2 -5 -5.5 -9t-9.5 -7q-4 -2 -8.5 -3.5t-12.5 -2.5t-21.5 -1.5t-35.5 -0.5q-20 0 -32 2t-20 6t-13 10t-10 13l-347 438l-92 -436q-3 -14 -16 -24.5t-51 -10.5q-25 0 -37.5 2.5t-20.5 7.5
q-8 8 -8 18q0 11 6 35l269 1262q3 15 7 23.5t9 13.5q8 8 20.5 12.5t26.5 7.5q16 3 26.5 4.5t24.5 1.5q27 0 27 -18q0 -5 -1 -11t-3 -14l-170 -800l416 335q16 14 35 21.5t63 7.5q34 0 50.5 -2.5t21.5 -5.5q6 -7 4 -14z" />
    <glyph glyph-name="l" unicode="l" horiz-adv-x="403" 
d="M553 1362q0 -5 -1 -11t-3 -14l-242 -1134q-6 -29 -10 -57t-4 -42q0 -26 4 -41.5t4 -29.5t-15.5 -21t-33.5 -12q-20 -5 -31 -6.5t-22 -1.5q-14 0 -21 6.5t-12 17.5q-3 8 -5.5 23.5t-2.5 44.5q0 20 4 50t12 65l238 1118q3 15 7 23.5t9 13.5q8 8 20.5 12.5t26.5 7.5
q16 3 26.5 4.5t24.5 1.5q27 0 27 -18z" />
    <glyph glyph-name="m" unicode="m" horiz-adv-x="1507" 
d="M1495 680q0 -56 -8.5 -110t-24.5 -119l-61 -248q-8 -29 -12.5 -57t-4.5 -42q0 -26 4.5 -41.5t4.5 -29.5t-15.5 -21t-34.5 -12q-20 -5 -31 -6.5t-22 -1.5q-14 0 -21 6.5t-12 17.5q-3 8 -5.5 23.5t-2.5 44.5q0 20 3.5 50t13.5 65l69 284q11 47 17 92t6 70q0 45 -11 75
t-30.5 48t-46.5 25.5t-58 7.5q-44 0 -87.5 -21.5t-81.5 -60t-67 -91.5t-42 -116l-103 -485q-3 -14 -16 -24.5t-51 -10.5q-25 0 -37 2.5t-20 7.5q-9 8 -9 18q0 13 7 35l90 428q9 47 15.5 92t6.5 70q0 45 -12 75t-32 48t-48 25.5t-59 7.5q-44 0 -90.5 -21.5t-87 -60
t-71.5 -91.5t-44 -116l-103 -485q-3 -14 -16 -24.5t-51 -10.5q-25 0 -37.5 2.5t-20.5 7.5q-8 8 -8 18q0 11 6 35l166 787q3 15 7.5 23.5t9.5 13.5q8 8 20.5 12.5t26.5 7.5q15 3 26 4.5t25 1.5q27 0 27 -18q0 -8 -5 -25l-18 -88q19 25 46 50t61 45t75.5 32t89.5 12
q58 0 99.5 -13t70.5 -34.5t46.5 -49.5t27.5 -58q25 32 55.5 60.5t69 49.5t84.5 33t102 12q63 0 108.5 -20.5t74.5 -53.5t43 -75t14 -84z" />
    <glyph glyph-name="n" unicode="n" horiz-adv-x="1001" 
d="M989 670q0 -48 -8.5 -101t-24.5 -118l-61 -248q-8 -29 -12 -57t-4 -42q0 -26 4 -41.5t4 -29.5t-15.5 -21t-33.5 -12q-20 -5 -31.5 -6.5t-22.5 -1.5q-14 0 -20.5 6.5t-11.5 17.5q-3 8 -6 23.5t-3 44.5q0 20 4 50t13 65l69 284q11 47 17 92t6 70q0 45 -13 75t-34.5 48
t-50.5 25.5t-60 7.5q-51 0 -102.5 -21.5t-95.5 -60t-77 -91.5t-46 -116l-103 -485q-3 -14 -16 -24.5t-51 -10.5q-25 0 -37.5 2.5t-20.5 7.5q-8 8 -8 18q0 11 6 35l166 787q3 15 7.5 23.5t9.5 13.5q8 8 20.5 12.5t26.5 7.5q15 3 26 4.5t25 1.5q27 0 27 -18q0 -8 -5 -25
l-18 -88q19 23 50.5 47.5t71 45t85.5 33.5t94 13q73 0 123 -22t81 -57t44 -78t12 -86z" />
    <glyph glyph-name="o" unicode="o" horiz-adv-x="987" 
d="M868 549q0 54 -13.5 100t-41.5 80.5t-70 54t-100 19.5q-69 0 -125 -30t-98.5 -80.5t-71 -116t-41.5 -136.5q-5 -24 -6.5 -48.5t-1.5 -47.5q0 -54 13 -100t39.5 -80.5t67.5 -54t97 -19.5q71 0 128.5 30t100.5 80.5t71.5 116t41.5 136.5q5 24 7.5 48.5t2.5 47.5zM1001 553
q0 -26 -2 -55.5t-8 -61.5q-18 -101 -62 -184.5t-107 -144t-141.5 -94t-166.5 -33.5q-80 0 -144.5 23.5t-109.5 68.5t-69.5 112t-24.5 154q0 28 2 58.5t8 62.5q17 98 60.5 181.5t106.5 144t142.5 94.5t169.5 34q79 0 143 -24t109 -70t69.5 -113t24.5 -153z" />
    <glyph glyph-name="p" unicode="p" horiz-adv-x="995" 
d="M877 559q0 41 -9 83.5t-32 77.5t-62 57t-98 22q-79 0 -135 -40.5t-95.5 -107.5t-65.5 -153.5t-46 -178.5l-37 -167q31 -25 82 -44.5t123 -19.5q60 0 109 17.5t88.5 49t71 76.5t56.5 101q23 51 36.5 111t13.5 116zM1014 592q0 -49 -4.5 -91.5t-14.5 -82t-24.5 -77.5
t-34.5 -79q-26 -53 -70 -103.5t-101 -90.5t-124.5 -64t-140.5 -24q-60 0 -116.5 14.5t-109.5 46.5l-84 -393q-3 -14 -16 -24.5t-51 -10.5q-25 0 -37 2.5t-20 7.5q-9 8 -9 19q0 10 6 34l248 1166q3 15 7.5 23.5t9.5 13.5q8 8 20.5 12.5t26.5 7.5q15 3 26 4.5t25 1.5
q27 0 27 -18q0 -5 -1 -11t-3 -14l-17 -84q17 22 43.5 45.5t62 43.5t80.5 33t99 13q73 0 128.5 -27t93 -71.5t56.5 -102.5t19 -120z" />
    <glyph glyph-name="q" unicode="q" horiz-adv-x="991" 
d="M877 739q-14 10 -35 20.5t-47 19.5t-57.5 14.5t-65.5 5.5q-60 0 -109 -16.5t-88.5 -47t-71.5 -75t-57 -99.5q-23 -51 -35 -112.5t-12 -126.5q0 -40 9 -80.5t31.5 -72.5t60.5 -52.5t96 -20.5q43 0 81.5 17.5t71.5 47.5t61 70t50.5 85t38.5 92.5t26 91.5zM1018 801
q0 -10 -2 -22t-4 -21l-240 -1110q-3 -14 -16 -24.5t-51 -10.5q-25 0 -37.5 2.5t-20.5 7.5q-8 8 -8 19q0 10 6 34l98 459q-63 -80 -132.5 -117.5t-161.5 -37.5q-71 0 -124.5 26t-89.5 70.5t-54.5 102t-18.5 120.5q0 87 18 169.5t60 164.5q27 53 70 103.5t100.5 89.5t127.5 63
t150 24q53 0 104 -9t93.5 -21.5t74 -27t44.5 -26.5q14 -11 14 -28z" />
    <glyph glyph-name="r" unicode="r" horiz-adv-x="653" 
d="M819 850q0 -9 -5.5 -24.5t-14.5 -30.5q-10 -16 -19.5 -29.5t-23.5 -13.5t-24.5 3.5t-24.5 8.5q-10 3 -24 5.5t-42 2.5q-37 0 -79.5 -22t-81.5 -63t-71 -98.5t-47 -127.5l-92 -434q-3 -14 -16 -24.5t-51 -10.5q-25 0 -37.5 2.5t-20.5 7.5q-8 8 -8 18q0 11 6 35l166 787
q3 15 7.5 23.5t9.5 13.5q8 8 20.5 12.5t26.5 7.5q15 3 26 4.5t25 1.5q27 0 27 -18q0 -8 -5 -25l-22 -106q37 46 72.5 75t69 45.5t65.5 22.5t63 6q25 0 44 -4t36 -10q45 -16 45 -41z" />
    <glyph glyph-name="s" unicode="s" horiz-adv-x="774" 
d="M821 827q0 -9 -3 -18.5t-11 -26.5q-8 -14 -15 -24t-26 -10q-16 0 -31 6.5t-41 17.5q-32 12 -80 23.5t-114 11.5q-40 0 -74.5 -9t-60 -27t-40 -44.5t-14.5 -60.5q0 -57 38.5 -88.5t109.5 -53.5l80 -24q41 -13 82 -30t73.5 -43.5t53 -64t20.5 -92.5q0 -73 -28 -127.5
t-76.5 -90.5t-114 -54t-141.5 -18q-66 0 -118.5 9t-90.5 20.5t-61 23t-32 16.5q-18 11 -25 19.5t-7 17.5q0 8 4.5 21t15.5 28q14 19 21.5 23t21.5 4q13 0 30 -10t34 -19q8 -5 27 -12.5t45.5 -14.5t59.5 -12.5t70 -5.5q52 0 94 10.5t72 31t46 51t16 69.5q0 55 -42 87.5
t-118 55.5l-82 25q-42 12 -79.5 31.5t-65.5 47t-44 64t-16 82.5q0 67 26 117.5t71 84.5t105 51t128 17q51 0 91.5 -4.5t72.5 -11t56.5 -15t43.5 -16.5q28 -11 35.5 -20t7.5 -19z" />
    <glyph glyph-name="t" unicode="t" horiz-adv-x="608" 
d="M748 877q0 -10 -4.5 -23t-10.5 -29q-8 -20 -19 -33.5t-40 -13.5h-221l-111 -518q-5 -25 -7.5 -46t-2.5 -44q0 -32 23.5 -53t66.5 -21q46 0 72.5 11.5t42.5 17.5q9 5 16 8.5t18 3.5t19 -9.5t16 -23.5q15 -27 15 -41t-14 -23.5t-46 -25.5q-31 -14 -69.5 -24t-94.5 -10
q-99 0 -150.5 43t-51.5 118q0 22 3.5 55.5t12.5 73.5l108 508h-86q-32 0 -32 17q0 9 4 22t10 29q8 20 19 33.5t40 13.5h70l49 231q3 16 7.5 24t9.5 13q8 8 20.5 13t26.5 8q15 3 26 4.5t25 1.5q27 0 27 -19q0 -5 -1.5 -10.5t-3.5 -13.5l-53 -252h238q33 0 33 -16z" />
    <glyph glyph-name="u" unicode="u" horiz-adv-x="1006" 
d="M1042 872q0 -10 -6 -34l-135 -635q-6 -29 -10 -57t-4 -42q0 -26 4 -41.5t4 -29.5t-15.5 -21t-33.5 -12q-20 -5 -31 -6.5t-22 -1.5q-14 0 -20 7.5t-11 18.5q-3 8 -7.5 29t-4.5 43v37q-18 -23 -46.5 -47t-66 -43.5t-84 -32t-100.5 -12.5q-73 0 -123.5 22t-81 57t-43.5 78.5
t-12 86.5q0 48 9 101t23 118l88 411q3 14 16.5 24.5t51.5 10.5q25 0 37 -2.5t20 -7.5q8 -8 8 -19q0 -10 -6 -34l-88 -416q-9 -47 -15.5 -92t-6.5 -70q0 -45 12.5 -75t34.5 -48t50 -25.5t60 -7.5q51 0 103 21.5t96 60t77 91.5t46 116l100 473q3 14 16.5 24.5t51.5 10.5
q25 0 37 -2.5t20 -7.5q8 -8 8 -19z" />
    <glyph glyph-name="v" unicode="v" horiz-adv-x="827" 
d="M1001 877q0 -10 -8 -23t-20 -33l-479 -798q-13 -22 -33 -27.5t-51 -5.5t-48 5t-20 25l-143 805q-2 11 -4 22.5t-2 20.5q0 14 12.5 23.5t50.5 9.5q21 0 34.5 -1.5t22 -6.5t13.5 -15t8 -28l106 -688l404 690q7 12 13 21t15.5 15t24.5 9.5t39 3.5q41 0 53 -7.5t12 -16.5z
" />
    <glyph glyph-name="w" unicode="w" horiz-adv-x="1260" 
d="M1434 877q0 -10 -9 -24t-20 -34l-451 -796q-12 -22 -31.5 -27.5t-50.5 -5.5t-48.5 5.5t-20.5 27.5l-66 524l-305 -524q-12 -22 -31.5 -27.5t-50.5 -5.5t-48.5 5.5t-20.5 27.5l-88 782q-2 20 -3.5 34t-1.5 23q0 8 2.5 15t9.5 12.5t20 8.5t34 3q22 0 35 -3t20 -9t10 -16
t5 -25l67 -698l326 557l-10 86q-4 20 -5.5 40t-1.5 29q0 8 2.5 15t9.5 12.5t20 8.5t34 3q22 0 34.5 -3t19.5 -9.5t9.5 -17t4.5 -25.5l73 -680l369 686q6 12 12.5 21t16 15t24.5 9.5t39 3.5q41 0 53.5 -7.5t12.5 -16.5z" />
    <glyph glyph-name="x" unicode="x" horiz-adv-x="809" 
d="M952 879q0 -11 -9.5 -22t-20.5 -23l-344 -373l206 -400q7 -12 11 -20.5t4 -17.5q0 -19 -18.5 -25t-49.5 -6q-20 0 -32 2t-19.5 5.5t-12 8.5t-8.5 12l-172 349l-317 -351q-12 -14 -31 -20t-59 -6q-64 0 -64 22q0 11 10 22t21 23l381 412l-186 358q-7 13 -11 22.5t-4 18.5
q0 19 17.5 25t48.5 6q20 0 32 -2t19.5 -5.5t12 -9t8.5 -12.5l153 -309l285 311q12 14 31 20.5t59 6.5q32 0 45.5 -5.5t13.5 -16.5z" />
    <glyph glyph-name="y" unicode="y" horiz-adv-x="985" 
d="M1028 872q0 -10 -6 -34l-170 -803q-18 -84 -36 -140.5t-38 -94.5t-42.5 -62t-47.5 -45q-28 -24 -59.5 -43t-71.5 -31.5t-89.5 -19.5t-113.5 -7q-39 0 -75.5 5.5t-67 13t-52.5 15.5t-32 14q-17 9 -25 16t-8 18q0 8 3 19.5t14 30.5q11 18 19.5 25t21.5 7q9 0 26.5 -7
t34.5 -13q7 -3 23 -8.5t38 -11t49.5 -9.5t59.5 -4q58 0 110 16.5t94 49.5t71.5 82t43.5 114l31 141q-15 -18 -42 -39.5t-64.5 -41t-85.5 -32.5t-105 -13q-73 0 -122.5 22t-80 57t-44 78t-13.5 86q0 48 9.5 101t23.5 118l90 424q3 14 16 24.5t52 10.5q24 0 36.5 -2.5
t20.5 -7.5q8 -8 8 -19q0 -10 -6 -34l-90 -428q-13 -56 -18 -98t-5 -76q0 -40 13 -67.5t34.5 -44.5t50 -24.5t60.5 -7.5q51 0 102.5 21.5t96 60t77.5 91.5t46 116l102 485q3 14 16 24.5t52 10.5q24 0 36.5 -2.5t20.5 -7.5q8 -8 8 -19z" />
    <glyph glyph-name="z" unicode="z" horiz-adv-x="774" 
d="M903 868q0 -5 -1 -14.5t-3 -22.5q-5 -24 -11 -34t-16 -21l-634 -661h491q33 0 33 -17q0 -9 -4 -22t-10 -29q-8 -20 -19.5 -33.5t-40.5 -13.5h-608q-14 0 -22 1t-13 7q-4 4 -4 19v12t2 18q3 12 6.5 20.5t8 15.5t11 14t15.5 16l629 655h-455q-33 0 -33 17q0 9 4 22t11 29
q8 20 19 33.5t40 13.5h565q14 0 22 -1t13 -7q4 -4 4 -17z" />
    <glyph glyph-name="braceleft" unicode="{" horiz-adv-x="639" 
d="M942 1331q0 -8 -2 -20t-8 -37q-6 -22 -16 -30.5t-31 -8.5h-45q-47 0 -78.5 -13.5t-52.5 -36.5t-33 -54t-21 -66l-65 -262q-16 -65 -38 -116.5t-54.5 -92.5t-78.5 -71.5t-110 -51.5q28 -12 54.5 -34.5t43 -61.5t19 -96t-17.5 -138l-56 -223q-2 -18 -4 -34.5t-2 -30.5
q0 -39 13.5 -63.5t36 -38.5t52.5 -19.5t62 -5.5q20 0 26.5 -6.5t6.5 -14.5t-2 -19t-9 -36q-6 -23 -16 -31t-33 -8h-10q-71 0 -121.5 20.5t-82 53t-46 71t-14.5 74.5q0 25 1.5 45t4 37t5.5 32t7 31l39 162q18 72 17.5 123t-14 84.5t-36.5 51.5t-51 24q-20 5 -26 12.5t-6 13.5
q0 8 1 19.5t7 34.5q8 29 16 37.5t25 11.5q16 2 30 5.5t28 10t30.5 18t38.5 29.5q25 22 44 50t33 58t23.5 60t15.5 56l50 198q24 96 56.5 158.5t75.5 98.5t97.5 50.5t122.5 14.5h67q20 0 25.5 -9.5t5.5 -15.5z" />
    <glyph glyph-name="bar" unicode="|" horiz-adv-x="395" 
d="M403 -270q0 -14 -2.5 -21t-7.5 -12q-6 -5 -17.5 -8.5t-39.5 -3.5t-38.5 3.5t-16.5 8.5q-5 5 -8 12t-3 21v1605q0 14 3 21t8 12q6 5 16.5 8.5t38.5 3.5t39.5 -3.5t17.5 -8.5q5 -5 7.5 -12t2.5 -21v-1605z" />
    <glyph glyph-name="braceright" unicode="}" horiz-adv-x="639" 
d="M676 520q0 -8 -1 -19t-7 -34q-8 -29 -16.5 -37.5t-24.5 -11.5q-16 -2 -30 -5.5t-28.5 -10.5t-31 -18.5t-37.5 -29.5q-26 -21 -45 -49t-33 -58t-23.5 -60.5t-15.5 -55.5l-49 -199q-24 -96 -56.5 -158t-76 -98.5t-98 -50.5t-121.5 -14h-68q-20 0 -25.5 9t-5.5 15
q0 8 2 20.5t9 37.5q6 21 15.5 30t31.5 9h45q47 0 78.5 13t52 36t32.5 54t21 67l66 262q16 64 37.5 116t54 92.5t78 71t110.5 52.5q-29 11 -55 33.5t-42.5 61.5t-18.5 96t18 138l55 224q2 18 4 34.5t2 30.5q0 39 -13.5 63.5t-36 38.5t-52.5 19.5t-62 5.5q-20 0 -26 6.5
t-6 14.5t2 19t8 36q6 23 16 31t33 8h10q72 0 122 -20.5t81.5 -53t46 -71t14.5 -74.5q0 -51 -5 -82.5t-13 -63.5l-39 -162q-18 -72 -17.5 -123t14 -84t36.5 -51t51 -24q20 -5 26.5 -13t6.5 -14z" />
    <glyph glyph-name="asciitilde" unicode="~" horiz-adv-x="938" 
d="M995 877q0 -46 -15 -93t-42 -85.5t-65.5 -62.5t-86.5 -24q-30 0 -55 6.5t-47.5 17t-45 25t-48.5 29.5q-17 11 -33.5 22.5t-34 20.5t-35.5 15t-38 6q-29 0 -47.5 -12.5t-31 -32t-20 -43.5t-14.5 -48q-3 -11 -12.5 -18.5t-40.5 -7.5q-32 0 -45 7.5t-13 23.5q0 46 15 93
t43 85t66.5 62t86.5 24q31 0 56 -5.5t47 -15t43.5 -23t44.5 -28.5q18 -13 35.5 -25.5t35.5 -22.5t36 -16t38 -6q28 0 47 12t31 31.5t20 44t15 48.5q3 11 12.5 18.5t40.5 7.5q32 0 44.5 -7.5t12.5 -22.5z" />
    <glyph glyph-name="Euro" unicode="&#x20ac;" horiz-adv-x="1075" 
d="M1270 1184q0 -8 -3 -19.5t-14 -29.5q-12 -20 -22 -28.5t-23 -8.5q-12 0 -38 14t-58 27q-32 12 -77.5 23.5t-108.5 11.5q-57 0 -114.5 -19.5t-110.5 -58t-99 -96.5t-80 -136h492q14 0 19.5 -1.5t8.5 -6.5q6 -8 2 -27q-3 -15 -8.5 -30.5t-13.5 -26.5t-19.5 -14.5
t-29.5 -3.5h-488q-24 -90 -30 -201h493q14 0 20 -1.5t9 -6.5q5 -8 2 -27q-3 -15 -9 -30.5t-14 -26.5t-19 -15t-30 -4h-452q6 -87 32.5 -150t68 -103.5t94 -60t110.5 -19.5q83 0 135 12t74 20q28 11 43.5 18t27.5 7q13 0 22 -6t23 -31q8 -14 11.5 -26t3.5 -23
q0 -14 -15 -26.5t-59 -28.5q-47 -17 -111.5 -31t-162.5 -14q-89 0 -167 28.5t-137.5 86t-96 144t-42.5 203.5h-102q-14 0 -20 2t-9 7q-5 8 -2 26q3 16 9 31.5t14 26.5t19 14.5t30 3.5h61q3 53 10 102t21 99h-113q-14 0 -19.5 1.5t-8.5 6.5q-5 8 -2 26q3 16 8.5 31.5
t13.5 26.5t19.5 14.5t29.5 3.5h107q37 98 95.5 177.5t132.5 135t160 85.5t179 30q75 0 146.5 -15.5t134.5 -47.5q26 -14 36.5 -24t10.5 -21z" />
    <glyph glyph-name="quotesinglbase" unicode="&#x201a;" horiz-adv-x="371" 
d="M324 199q0 -10 -3.5 -17t-11.5 -22l-166 -307q-12 -23 -27 -30t-50 -7q-36 0 -44 6.5t-8 15.5q0 8 5 20.5t10 24.5l131 307q10 25 31 31t65 6q23 0 36.5 -2.5t20.5 -6.5t9 -9t2 -10z" />
    <glyph glyph-name="florin" unicode="&#x192;" horiz-adv-x="819" 
d="M1100 1311q-2 -8 -5 -17.5t-16 -29.5q-12 -22 -21.5 -28.5t-19.5 -6.5q-11 0 -26 5.5t-29 10.5q-19 6 -44.5 12.5t-57.5 6.5q-58 0 -97.5 -19t-66 -51t-42 -73t-24.5 -85l-30 -149h249q18 0 21 -6q5 -6 2 -23q-2 -8 -5 -22t-11 -25q-5 -11 -11.5 -20.5t-11.5 -12.5
q-6 -3 -11 -4.5t-16 -1.5h-231l-193 -928q-3 -14 -7.5 -20.5t-10.5 -11.5t-19 -9t-40 -4q-28 0 -37.5 4t-16.5 9q-3 5 -4 11.5t2 20.5l193 928h-131q-8 0 -13.5 1.5t-7.5 4.5q-3 3 -3.5 9t1.5 14t6 22t11 25q5 9 11 19.5t11 13.5q6 3 11 4.5t16 1.5h112l35 164
q15 72 45.5 132.5t76.5 104t107 68t138 24.5q56 0 96.5 -8t69.5 -20q32 -13 39.5 -22.5t5.5 -18.5z" />
    <glyph glyph-name="quotedblbase" unicode="&#x201e;" horiz-adv-x="686" 
d="M324 199q0 -10 -3.5 -17t-11.5 -22l-166 -307q-12 -23 -27 -30t-50 -7q-36 0 -44 6.5t-8 15.5q0 8 5 20.5t10 24.5l131 307q10 25 31 31t65 6q23 0 36.5 -2.5t20.5 -6.5t9 -9t2 -10zM639 199q0 -10 -3 -17t-11 -22l-166 -307q-6 -12 -12.5 -19t-15 -11t-20.5 -5.5
t-30 -1.5q-35 0 -43 6.5t-8 15.5q0 8 4.5 20.5t9.5 24.5l131 307q10 25 31 31t65 6q23 0 36.5 -2.5t20.5 -6.5t9 -9t2 -10z" />
    <glyph glyph-name="ellipsis" unicode="&#x2026;" horiz-adv-x="1167" 
d="M293 86q0 -43 -29.5 -72.5t-73.5 -29.5q-43 0 -72.5 29.5t-29.5 72.5t29.5 72.5t72.5 29.5q44 0 73.5 -29.5t29.5 -72.5zM686 86q0 -43 -29.5 -72.5t-72.5 -29.5q-44 0 -73.5 29.5t-29.5 72.5t29.5 72.5t73.5 29.5q43 0 72.5 -29.5t29.5 -72.5zM1079 86
q0 -43 -29.5 -72.5t-72.5 -29.5q-21 0 -40 8t-33 21.5t-22 32.5t-8 40t8 40t22 32.5t33 21.5t40 8q43 0 72.5 -29.5t29.5 -72.5z" />
    <glyph glyph-name="dagger" unicode="&#x2020;" horiz-adv-x="793" 
d="M928 973q0 -9 -4 -22.5t-11 -28.5q-4 -10 -8 -19t-10.5 -15.5t-16 -10t-24.5 -3.5h-207l-209 -983q-3 -14 -16 -24t-51 -10q-25 0 -37.5 2.5t-20.5 7.5q-8 8 -8 18q0 11 6 35l203 954h-223q-33 0 -33 17q0 9 4 22.5t10 28.5q8 20 19.5 33.5t40.5 13.5h207l79 377
q4 14 17 24.5t51 10.5q25 0 37 -2.5t20 -7.5q9 -9 9 -19q0 -11 -7 -35l-73 -348h223q33 0 33 -16z" />
    <glyph glyph-name="daggerdbl" unicode="&#x2021;" horiz-adv-x="805" 
d="M938 985q0 -9 -4 -22.5t-10 -28.5q-8 -20 -19.5 -33.5t-40.5 -13.5h-207l-110 -520h223q33 0 33 -17q0 -9 -4 -22.5t-11 -28.5q-4 -10 -8 -18.5t-10.5 -15t-16 -10t-24.5 -3.5h-207l-76 -361q-3 -14 -16 -24t-51 -10q-25 0 -37 2.5t-20 7.5q-9 8 -9 18q0 11 6 35l70 332
h-223q-33 0 -33 16q0 10 4 23t10 28q8 20 19.5 34t40.5 14h207l110 520h-223q-33 0 -33 16q0 9 4 22.5t11 28.5q7 20 18.5 33.5t40.5 13.5h207l78 365q3 14 16 24.5t51 10.5q25 0 37.5 -2.5t20.5 -7.5q8 -9 8 -19t-6 -35l-72 -336h223q33 0 33 -16z" />
    <glyph glyph-name="circumflex" unicode="&#x2c6;" horiz-adv-x="1024" 
d="M1038 1034q0 -12 -11 -17t-46 -5q-31 0 -49 4t-29 24l-102 177l-209 -179q-9 -8 -16 -13t-15.5 -8.5t-19 -5t-25.5 -1.5q-35 0 -49 6t-14 18q0 8 5 17.5t25 29.5l234 217q18 17 29 27.5t21 16.5t19.5 8t24.5 2q16 0 26.5 -1.5t18.5 -7t15.5 -16t17.5 -27.5l125 -215
q14 -24 19 -33.5t5 -17.5z" />
    <glyph glyph-name="perthousand" unicode="&#x2030;" horiz-adv-x="2304" 
d="M1444 365q0 35 -8 65.5t-25.5 53t-45.5 35.5t-67 13q-58 0 -101.5 -29t-72 -73.5t-43 -97.5t-14.5 -101q0 -35 7.5 -64t24.5 -51t44 -34t65 -12q59 0 103.5 27t74 70t44 95.5t14.5 102.5zM762 1135q0 35 -8 66t-25.5 53.5t-45.5 35.5t-67 13q-58 0 -101.5 -29.5t-72 -74
t-43 -97.5t-14.5 -101q0 -35 7.5 -64t24.5 -51t44 -34t65 -12q59 0 103.5 27t74 70t44 95.5t14.5 102.5zM2181 365q0 35 -8 65.5t-25.5 53t-45 35.5t-66.5 13q-59 0 -102.5 -29t-72 -73.5t-43 -97.5t-14.5 -101q0 -35 7.5 -64t24.5 -51t44 -34t66 -12q59 0 103 27t73.5 70
t44 95.5t14.5 102.5zM1565 371q0 -78 -26 -150t-73 -127.5t-112.5 -89t-143.5 -33.5q-60 0 -108.5 16.5t-83 48.5t-53.5 80t-19 111q0 78 26 151t73.5 129.5t113 90t144.5 33.5q59 0 107 -17.5t82.5 -51t53.5 -82t19 -109.5zM1470 1380q0 -8 -6.5 -18t-15.5 -23l-948 -1331
q-14 -18 -31 -23t-51 -5q-32 0 -46 5.5t-14 14.5q0 8 7 18.5t16 22.5l948 1331q14 19 31 24t51 5q32 0 45.5 -5.5t13.5 -15.5zM883 1141q0 -78 -26 -150t-73 -127.5t-112.5 -89t-143.5 -33.5q-60 0 -108.5 16.5t-83 48.5t-53.5 80t-19 111q0 78 26 151t73.5 129.5t113 90
t144.5 33.5q59 0 107 -17.5t82.5 -51t53.5 -82t19 -109.5zM2302 371q0 -78 -26 -150t-72.5 -127.5t-112 -89t-143.5 -33.5q-60 0 -109 16.5t-83.5 48.5t-53.5 80t-19 111q0 78 26 151t73.5 129.5t113 90t144.5 33.5q59 0 107.5 -17.5t83 -51t53 -82t18.5 -109.5z" />
    <glyph glyph-name="Scaron" unicode="&#x160;" horiz-adv-x="1040" 
d="M1159 1280q0 -19 -20 -53q-13 -20 -21 -28.5t-20 -8.5q-11 0 -19.5 3.5t-19.5 8.5q-35 16 -66.5 29t-67.5 22t-79.5 14t-102.5 5q-60 0 -119.5 -15.5t-106.5 -48t-76 -82.5t-29 -118q0 -42 14 -76t39 -60t60.5 -44.5t78.5 -30.5l182 -54q64 -18 114 -46t85.5 -67t54 -90
t19.5 -116q0 -84 -20 -150t-56 -116.5t-85.5 -86t-106.5 -58t-119 -32.5t-125 -10q-89 0 -159 13.5t-121.5 32.5t-85.5 39.5t-52 33.5q-22 16 -29.5 26t-7.5 19q0 8 3 19.5t16 29.5q14 20 26.5 32.5t26.5 12.5t29.5 -10t35.5 -24q14 -10 41.5 -26t66.5 -31t89 -25.5
t109 -10.5q64 0 130 13t120 46t88 89t34 143t-50 140t-144 79l-158 45q-139 41 -213 115.5t-74 196.5q0 111 43 192t113.5 134t160 78.5t181.5 25.5q118 0 204.5 -22.5t151.5 -57.5q16 -9 26.5 -18t10.5 -21zM1175 1778q0 -8 -5.5 -17.5t-25.5 -29.5l-233 -217
q-18 -17 -29 -27.5t-21 -16t-19.5 -7.5t-24.5 -2q-16 0 -26.5 1.5t-18.5 7t-15.5 15.5t-17.5 27l-125 215q-14 25 -19.5 34t-5.5 17q0 12 11.5 17.5t46.5 5.5q31 0 49 -4.5t29 -24.5l102 -176l209 178q8 7 15.5 12.5t15.5 9.5t19 5.5t26 1.5q35 0 49 -6.5t14 -18.5z" />
    <glyph glyph-name="guilsinglleft" unicode="&#x2039;" horiz-adv-x="659" 
d="M610 889q0 -11 -1 -27t-4 -33.5t-8.5 -33.5t-14.5 -27l-209 -238l121 -239q12 -23 12 -53q0 -32 -1.5 -51t-5.5 -30t-10.5 -14.5t-15.5 -3.5q-22 0 -47 43l-160 285q-12 22 -18 35.5t-6 32.5q0 18 11.5 35t27.5 34l219 240q23 25 37 39.5t23 21.5t15 8.5t13 1.5
q12 0 17 -8.5t5 -17.5z" />
    <glyph glyph-name="OE" unicode="&#x152;" horiz-adv-x="1950" 
d="M1251 907q1 86 -19 154.5t-59 116t-97.5 73t-135.5 25.5q-99 0 -184.5 -41t-154.5 -117t-120 -185t-80 -245q-12 -62 -19 -118t-7 -105q-1 -87 18.5 -155.5t59 -116t98.5 -72.5t137 -25q98 0 182.5 40t152.5 115.5t118.5 184t81.5 244.5q14 63 21 119t7 108zM2177 1352
q0 -6 -2.5 -17t-6 -22t-7 -20t-4.5 -13q-10 -22 -21 -30.5t-33 -8.5h-616l-92 -428h544q17 0 22 -6t5 -14q0 -6 -2.5 -17t-6 -22t-7 -20t-4.5 -13q-10 -22 -21 -30.5t-33 -8.5h-524l-117 -551h645q17 0 22 -6t5 -14q0 -6 -2.5 -17t-6 -22t-7 -20t-4.5 -13q-10 -22 -21 -30.5
t-33 -8.5h-698q-61 0 -61 35q0 8 1 16.5t3 18.5l20 106q-38 -47 -87 -85t-106 -64.5t-121 -41t-132 -14.5q-104 0 -187.5 32.5t-142 95t-89.5 154t-30 210.5q0 52 6.5 107.5t20.5 117.5q37 173 106 306t162 223.5t206.5 137t240.5 46.5q66 0 125.5 -17t107.5 -48.5t82 -75.5
t49 -97l33 152q6 30 22 43q8 6 20.5 10t41.5 4h708q17 0 22 -6t5 -14z" />
    <glyph glyph-name="Zcaron" unicode="&#x17d;" horiz-adv-x="961" 
d="M1200 1339q0 -6 -0.5 -15t-5.5 -28q-5 -17 -12 -31.5t-21 -31.5l-928 -1102h701q17 0 22 -6t5 -14q0 -6 -2.5 -17t-6.5 -22t-7.5 -20t-4.5 -13q-9 -22 -20.5 -30.5t-32.5 -8.5h-811q-14 0 -22 2.5t-11 5.5q-5 5 -6.5 12t-1.5 13t0.5 15t5.5 28q5 17 12 31.5t21 31.5
l925 1102h-669q-17 0 -22 6.5t-5 14.5q0 6 2.5 16.5t6 21.5t7 20t5.5 13q9 22 20 30.5t33 8.5h782q14 0 22 -2.5t11 -5.5q5 -5 6.5 -11.5t1.5 -13.5zM1155 1778q0 -8 -5.5 -17.5t-25.5 -29.5l-233 -217q-18 -17 -29 -27.5t-21 -16t-19.5 -7.5t-24.5 -2q-16 0 -26.5 1.5
t-18.5 7t-15.5 15.5t-17.5 27l-125 215q-14 25 -19.5 34t-5.5 17q0 12 11.5 17.5t46.5 5.5q31 0 49 -4.5t29 -24.5l102 -176l209 178q8 7 15.5 12.5t15.5 9.5t19 5.5t26 1.5q35 0 49 -6.5t14 -18.5z" />
    <glyph glyph-name="quoteleft" unicode="&#x2018;" horiz-adv-x="371" 
d="M596 1358q0 -8 -4.5 -20.5t-9.5 -24.5l-131 -307q-11 -25 -31.5 -31t-65.5 -6q-23 0 -36.5 2.5t-20 6.5t-8.5 9t-2 10q0 10 3 17t11 22l166 307q12 23 27.5 30t50.5 7t43 -6.5t8 -15.5z" />
    <glyph glyph-name="quoteright" unicode="&#x2019;" horiz-adv-x="371" 
d="M590 1352q0 -10 -3.5 -17t-11.5 -22l-165 -307q-6 -12 -12.5 -19t-15 -11t-20.5 -5.5t-30 -1.5q-35 0 -43 6.5t-8 15.5q0 8 4.5 20.5t9.5 24.5l131 307q10 25 31 31t65 6q23 0 36.5 -2.5t20.5 -6.5t9 -9t2 -10z" />
    <glyph glyph-name="quotedblleft" unicode="&#x201c;" horiz-adv-x="686" 
d="M596 1358q0 -8 -4.5 -20.5t-9.5 -24.5l-131 -307q-11 -25 -31.5 -31t-65.5 -6q-23 0 -36.5 2.5t-20 6.5t-8.5 9t-2 10q0 10 3 17t11 22l166 307q12 23 27.5 30t50.5 7t43 -6.5t8 -15.5zM911 1358q0 -8 -4.5 -20.5t-9.5 -24.5l-131 -307q-5 -12 -12.5 -19.5t-18.5 -11.5
t-27 -5t-38 -1q-23 0 -36.5 2.5t-20.5 6.5t-9 9t-2 10q0 10 3 17t11 22l166 307q6 12 12.5 19t15 11t20.5 5.5t30 1.5q35 0 43 -6.5t8 -15.5z" />
    <glyph glyph-name="quotedblright" unicode="&#x201d;" horiz-adv-x="686" 
d="M590 1352q0 -10 -3.5 -17t-11.5 -22l-165 -307q-6 -12 -12.5 -19t-15 -11t-20.5 -5.5t-30 -1.5q-35 0 -43 6.5t-8 15.5q0 8 4.5 20.5t9.5 24.5l131 307q10 25 31 31t65 6q23 0 36.5 -2.5t20.5 -6.5t9 -9t2 -10zM905 1352q0 -10 -3 -17t-11 -22l-166 -307
q-12 -23 -27.5 -30t-50.5 -7t-43 6.5t-8 15.5q0 8 4.5 20.5t9.5 24.5l131 307q11 25 31.5 31t65.5 6q23 0 36.5 -2.5t20 -6.5t8.5 -9t2 -10z" />
    <glyph glyph-name="bullet" unicode="&#x2022;" horiz-adv-x="868" 
d="M926 659q0 -67 -25.5 -125.5t-69 -102t-102 -68.5t-125.5 -25t-125.5 25t-102 68.5t-68.5 102t-25 125.5t25 126t68.5 102.5t102 68.5t125.5 25t125.5 -25t102 -68.5t69 -102.5t25.5 -126z" />
    <glyph glyph-name="endash" unicode="&#x2013;" horiz-adv-x="1024" 
d="M1087 471q0 -8 -1.5 -21.5t-4.5 -25.5q-3 -9 -7 -19.5t-9 -13.5t-9.5 -4.5t-15.5 -1.5h-913q-16 0 -23 6q-6 6 -6 23q0 8 1.5 21t4.5 26q4 9 8 19t9 14q5 3 9 4.5t15 1.5h914q16 0 22 -6q6 -8 6 -23z" />
    <glyph glyph-name="emdash" unicode="&#x2014;" horiz-adv-x="2048" 
d="M2111 471q0 -8 -1.5 -21.5t-4.5 -25.5q-3 -9 -7 -19.5t-9 -13.5t-9.5 -4.5t-15.5 -1.5h-1937q-16 0 -23 6q-6 6 -6 23q0 8 1.5 21t4.5 26q4 9 8 19t9 14q5 3 9 4.5t15 1.5h1938q16 0 22 -6q6 -8 6 -23z" />
    <glyph glyph-name="tilde" unicode="&#x2dc;" horiz-adv-x="1024" 
d="M1051 1219q0 -5 -2.5 -15.5t-10.5 -27.5q-31 -72 -76 -110t-110 -38q-44 0 -73 14t-54 29q-23 14 -47 27.5t-53 13.5q-22 0 -42 -11t-40 -42q-13 -20 -19.5 -25.5t-21.5 -5.5h-43q-25 0 -25 16q0 5 2 15.5t10 27.5q31 72 77.5 110t115.5 38q22 0 39.5 -4t31.5 -10.5
t26 -14t24 -14.5q23 -14 47.5 -27.5t50.5 -13.5q23 0 43.5 11t40.5 42q12 20 19 25.5t22 5.5h43q25 0 25 -16z" />
    <glyph glyph-name="trademark" unicode="&#x2122;" horiz-adv-x="1772" 
d="M942 1370q0 -17 -4 -33t-10 -28q-6 -11 -15 -14t-26 -3h-197v-616q0 -13 -3 -18.5t-9 -8.5q-5 -2 -8 -4t-7.5 -3.5t-12 -2t-19.5 -0.5q-25 0 -34.5 2.5t-14.5 7.5q-7 6 -9 10t-2 17v616h-211q-12 0 -18.5 1.5t-11.5 4.5q-8 4 -8 25q0 17 4 33t10 28q6 11 15 14t26 3h526
q13 0 19.5 -1.5t11.5 -4.5q8 -4 8 -25zM1755 674q0 -11 -3 -16.5t-9 -8.5q-5 -2 -8 -4t-7.5 -3.5t-12 -2t-19.5 -0.5q-25 0 -35.5 2.5t-15.5 7.5q-7 6 -9 10t-2 15v551l-153 -299q-5 -7 -9.5 -12t-11 -8t-18 -4t-29.5 -1t-29 1t-18 4t-10.5 8t-7.5 12l-154 268v-520
q0 -11 -3 -16.5t-9 -8.5q-10 -5 -18.5 -7.5t-33.5 -2.5q-24 0 -33 2.5t-14 7.5q-6 6 -8 10t-2 15v635l-18 37q-6 9 -11.5 17.5t-5.5 16.5q0 10 9 15q10 10 71 10q37 0 53.5 -5t22.5 -16l219 -364l197 352q3 5 8 11.5t8 9.5q6 5 18.5 8.5t38.5 3.5q29 0 44 -2.5t20 -7.5
q3 -3 5.5 -7t2.5 -18v-696z" />
    <glyph glyph-name="scaron" unicode="&#x161;" horiz-adv-x="774" 
d="M821 827q0 -9 -3 -18.5t-11 -26.5q-8 -14 -15 -24t-26 -10q-16 0 -31 6.5t-41 17.5q-32 12 -80 23.5t-114 11.5q-40 0 -74.5 -9t-60 -27t-40 -44.5t-14.5 -60.5q0 -57 38.5 -88.5t109.5 -53.5l80 -24q41 -13 82 -30t73.5 -43.5t53 -64t20.5 -92.5q0 -73 -28 -127.5
t-76.5 -90.5t-114 -54t-141.5 -18q-66 0 -118.5 9t-90.5 20.5t-61 23t-32 16.5q-18 11 -25 19.5t-7 17.5q0 8 4.5 21t15.5 28q14 19 21.5 23t21.5 4q13 0 30 -10t34 -19q8 -5 27 -12.5t45.5 -14.5t59.5 -12.5t70 -5.5q52 0 94 10.5t72 31t46 51t16 69.5q0 55 -42 87.5
t-118 55.5l-82 25q-42 12 -79.5 31.5t-65.5 47t-44 64t-16 82.5q0 67 26 117.5t71 84.5t105 51t128 17q51 0 91.5 -4.5t72.5 -11t56.5 -15t43.5 -16.5q28 -11 35.5 -20t7.5 -19zM963 1327q0 -8 -5.5 -17.5t-25.5 -29.5l-233 -217q-18 -17 -29 -27.5t-21 -16t-19.5 -7.5
t-24.5 -2q-16 0 -26.5 1.5t-18.5 7t-15.5 15.5t-17.5 27l-125 215q-14 25 -19.5 34t-5.5 17q0 12 11.5 17.5t46.5 5.5q31 0 49 -4.5t29 -24.5l102 -176l209 178q8 7 15.5 12.5t15.5 9.5t19 5.5t26 1.5q35 0 49 -6.5t14 -18.5z" />
    <glyph glyph-name="guilsinglright" unicode="&#x203a;" horiz-adv-x="659" 
d="M598 520q0 -18 -11.5 -35t-27.5 -34l-219 -240q-23 -26 -37 -40t-23 -21.5t-15 -9t-13 -1.5q-12 0 -17.5 9t-5.5 18q0 11 1 27t4 33.5t9 33.5t15 27l209 237l-121 240q-12 21 -12 53q0 31 1.5 50.5t5.5 30t10.5 14t15.5 3.5q22 0 47 -43l159 -284q13 -22 19 -35.5
t6 -32.5z" />
    <glyph glyph-name="oe" unicode="&#x153;" horiz-adv-x="1528" 
d="M868 549q0 54 -13.5 100t-41.5 80.5t-70 54t-100 19.5q-69 0 -125 -30t-98.5 -80.5t-71 -116t-41.5 -136.5q-5 -24 -6.5 -48.5t-1.5 -47.5q0 -54 13 -100t39.5 -80.5t67.5 -54t97 -19.5q71 0 128.5 30t100.5 80.5t71.5 116t41.5 136.5q5 24 7.5 48.5t2.5 47.5zM1460 698
q0 21 -6.5 41.5t-22 36t-40.5 25.5t-62 10q-66 0 -122.5 -31.5t-101 -83t-74.5 -118t-42 -136.5q138 8 228.5 37t144.5 67t76 79t22 73zM1589 707q0 -160 -152 -255.5t-456 -121.5q1 -56 18.5 -98.5t46.5 -71t66.5 -42.5t77.5 -14q59 0 107.5 15.5t76.5 27.5q14 7 25 12
t20 5q14 0 23.5 -11t17.5 -26q13 -26 13 -43q0 -5 -2 -10t-8 -11t-18 -13.5t-32 -16.5q-43 -20 -98 -36.5t-135 -16.5q-57 0 -111 15t-96 46q-31 22 -56 55.5t-40 87.5q-69 -100 -162 -152t-201 -52q-80 0 -144.5 23.5t-109.5 68.5t-69.5 112t-24.5 154q0 28 2 58.5t8 62.5
q17 98 60.5 181.5t106.5 144t142.5 94.5t169.5 34q115 0 196.5 -50.5t119.5 -155.5q65 99 155.5 152.5t204.5 53.5q68 0 117 -15.5t80.5 -42.5t46 -65t14.5 -83z" />
    <glyph glyph-name="zcaron" unicode="&#x17e;" horiz-adv-x="774" 
d="M903 868q0 -5 -1 -14.5t-3 -22.5q-5 -24 -11 -34t-16 -21l-634 -661h491q33 0 33 -17q0 -9 -4 -22t-10 -29q-8 -20 -19.5 -33.5t-40.5 -13.5h-608q-14 0 -22 1t-13 7q-4 4 -4 19v12t2 18q3 12 6.5 20.5t8 15.5t11 14t15.5 16l629 655h-455q-33 0 -33 17q0 9 4 22t11 29
q8 20 19 33.5t40 13.5h565q14 0 22 -1t13 -7q4 -4 4 -17zM974 1327q0 -8 -5.5 -17.5t-25.5 -29.5l-233 -217q-18 -17 -29 -27.5t-21 -16t-19.5 -7.5t-24.5 -2q-16 0 -26.5 1.5t-18.5 7t-15.5 15.5t-17.5 27l-125 215q-14 25 -19.5 34t-5.5 17q0 12 11.5 17.5t46.5 5.5
q31 0 49 -4.5t29 -24.5l102 -176l209 178q8 7 15.5 12.5t15.5 9.5t19 5.5t26 1.5q35 0 49 -6.5t14 -18.5z" />
    <glyph glyph-name="Ydieresis" unicode="&#x178;" horiz-adv-x="1059" 
d="M1335 1356q-2 -5 -5 -11.5t-15 -21.5l-594 -733l-119 -563q-3 -16 -17.5 -25.5t-56.5 -9.5q-26 0 -39.5 2.5t-21.5 7.5q-10 7 -10 21q0 10 6 34l112 533l-266 719q-6 17 -10 26t-2 19q4 11 14 18q8 3 19.5 5.5t40.5 2.5q35 0 48 -5.5t19 -22.5l240 -631l506 631
q14 18 32.5 23t53.5 5q25 0 39.5 -2.5t17.5 -5.5q6 -3 7 -8t1 -8zM801 1569q0 -22 -7.5 -41.5t-21 -33.5t-31.5 -22.5t-39 -8.5q-19 0 -36.5 8.5t-30.5 22.5t-21 33.5t-8 41.5q0 47 27 78t69 31q20 0 38 -8.5t31.5 -23t21.5 -34.5t8 -43zM1079 1569q0 -45 -28 -75.5
t-70 -30.5q-19 0 -36.5 8.5t-31 22.5t-21.5 33.5t-8 41.5q0 47 27.5 78t69.5 31q20 0 37.5 -8.5t31 -23t21.5 -34.5t8 -43z" />
    <glyph glyph-name="nonbreakingspace" unicode="&#xa0;" horiz-adv-x="512" 
 />
    <glyph glyph-name="exclamdown" unicode="&#xa1;" horiz-adv-x="381" 
d="M459 961q0 -11 -6 -35l-193 -908q-3 -14 -16 -24t-51 -10q-25 0 -37.5 2.5t-20.5 7.5q-8 8 -8 18q0 11 6 35l193 907q3 14 16 24.5t51 10.5q25 0 37.5 -2.5t20.5 -7.5q8 -8 8 -18zM563 1272q0 -23 -8 -43t-22 -35t-32.5 -24t-39.5 -9t-40 9t-33.5 24t-23 35t-8.5 43
q0 22 8.5 41.5t23 34.5t33.5 23.5t40 8.5t39.5 -8.5t32.5 -23.5t22 -34.5t8 -41.5z" />
    <glyph glyph-name="cent" unicode="&#xa2;" horiz-adv-x="973" 
d="M672 889q-54 -12 -104 -48t-88.5 -91.5t-61.5 -129t-23 -161.5q0 -94 36 -156t99 -82zM993 928q0 -18 -18 -45q-9 -16 -20 -28.5t-25 -12.5q-13 0 -24.5 5.5t-33.5 16.5q-17 10 -39.5 17t-56.5 12l-145 -680q37 3 66 10t51 17q27 11 45.5 20.5t33.5 9.5q16 0 24.5 -13.5
t16.5 -29.5q7 -14 10 -24t3 -21q0 -5 -2 -10t-8.5 -10t-18.5 -11.5t-31 -15.5q-40 -17 -95.5 -33t-121.5 -18l-47 -219q-2 -9 -5 -16t-9 -11t-16.5 -6t-28.5 -2q-35 0 -41.5 8t-1.5 27l49 227q-119 25 -182.5 117.5t-63.5 232.5q0 130 39.5 232t102.5 174.5t141.5 115
t156.5 52.5l33 149q4 19 13 27t44 8q36 0 43.5 -8t2.5 -27l-33 -149q46 -5 79 -15t62 -24q35 -17 43 -29t8 -20z" />
    <glyph glyph-name="sterling" unicode="&#xa3;" horiz-adv-x="1106" 
d="M1188 1243q0 -17 -23 -57q-11 -19 -17.5 -24t-19.5 -5q-11 0 -25.5 7.5t-31.5 15.5q-12 5 -28 11.5t-36.5 12t-47 9.5t-60.5 4q-51 0 -90 -15t-68.5 -39t-51 -55.5t-36.5 -65t-24.5 -66t-16.5 -58.5l-41 -168h420q13 0 18.5 -1.5t8.5 -5.5q5 -5 2 -24q-1 -7 -3.5 -17.5
t-6.5 -21.5t-9 -20.5t-10 -14.5q-8 -8 -18 -11t-29 -3h-399l-117 -502h643q20 0 25.5 -5.5t5.5 -14.5q0 -11 -2.5 -19.5t-5.5 -19.5q-5 -14 -11 -29t-12 -23q-9 -12 -18.5 -15t-28.5 -3h-819q-20 0 -25.5 5.5t-5.5 14.5q0 11 2.5 18.5t5.5 18.5q5 14 11 30t12 24
q9 12 18.5 15t28.5 3h39l117 502h-91q-12 0 -17.5 1.5t-8.5 4.5q-5 5 -2 25q3 14 11 38t17 35q11 8 22 11.5t30 3.5h65l41 174q24 100 60 177.5t89.5 130.5t125.5 80t168 27q41 0 78 -6.5t67.5 -15.5t53.5 -19.5t38 -17.5q20 -11 26.5 -19.5t6.5 -17.5z" />
    <glyph glyph-name="currency" unicode="&#xa4;" horiz-adv-x="1200" 
d="M1065 692q0 73 -26.5 139t-73 115.5t-108.5 79t-132 29.5q-71 0 -132.5 -29.5t-108 -79t-73 -115.5t-26.5 -139t26.5 -138.5t73 -115t108 -79t132.5 -29.5q70 0 132 29.5t108.5 79t73 115t26.5 138.5zM1233 240q0 -7 -7 -18t-24 -29q-15 -16 -23 -21.5t-16 -5.5t-13 3
t-13 11l-131 127q-59 -48 -130 -74t-151 -26q-81 0 -151.5 26t-129.5 74l-131 -127q-8 -8 -13 -11t-13 -3t-16 5.5t-23 21.5q-17 18 -24 29t-7 18q0 6 4 11.5t15 16.5l124 123q-48 63 -75 139.5t-27 161.5t27 161.5t75 139.5l-124 123q-11 11 -15 17t-4 12t7 17t24 30
q15 15 23 21t16 6t13 -3.5t13 -11.5l131 -127q59 48 129.5 74.5t151.5 26.5q80 0 151 -26.5t130 -74.5l131 127q8 8 13 11.5t13 3.5t16 -6t23 -21q17 -19 24 -30t7 -17t-4 -12t-15 -17l-124 -123q48 -63 75 -139.5t27 -161.5t-27 -161.5t-75 -139.5l124 -123
q11 -11 15 -16.5t4 -11.5z" />
    <glyph glyph-name="yen" unicode="&#xa5;" horiz-adv-x="1067" 
d="M1303 1247q0 -5 -4 -12t-15 -21l-440 -520h178q15 0 21 -5t6 -11q0 -16 -7 -33q-3 -9 -6.5 -16t-9.5 -17q-8 -11 -19 -14.5t-28 -3.5h-219l-49 -57l-25 -119h277q15 0 20.5 -5t5.5 -12q0 -9 -1.5 -16t-4.5 -16q-5 -17 -16 -33q-15 -19 -47 -19h-254l-62 -290
q-3 -16 -17 -25.5t-55 -9.5q-24 0 -37.5 2.5t-21.5 7.5q-10 7 -10 21q0 8 6 32l55 262h-278q-16 0 -21.5 5.5t-5.5 11.5q0 9 1.5 16t4.5 17q3 11 6.5 17t10.5 15q8 11 19 15t28 4h258l24 119l-22 57h-244q-15 0 -20.5 5t-5.5 11q0 10 1.5 17t4.5 16q3 11 6.5 17.5t9.5 15.5
q8 11 19 14.5t28 3.5h160l-205 506q-6 17 -8 24.5t-2 16.5q0 8 5 14t11 9q10 3 22.5 4.5t35.5 1.5q34 0 47.5 -6t19.5 -23l232 -577l485 577q14 17 32 23t52 6q39 0 57 -6q8 -3 9.5 -8.5t1.5 -8.5z" />
    <glyph glyph-name="brokenbar" unicode="&#xa6;" horiz-adv-x="395" 
d="M403 -270q0 -14 -2.5 -21t-7.5 -12q-6 -5 -17.5 -8.5t-39.5 -3.5t-38.5 3.5t-16.5 8.5q-5 5 -8 12t-3 21v647q0 14 3 21t8 12q6 5 16.5 8.5t38.5 3.5t39.5 -3.5t17.5 -8.5q5 -5 7.5 -12t2.5 -21v-647zM403 678q0 -14 -2.5 -21t-7.5 -12q-6 -5 -17.5 -8.5t-39.5 -3.5
t-38.5 3.5t-16.5 8.5q-5 5 -8 12t-3 21v657q0 14 3 21t8 12q6 5 16.5 8.5t38.5 3.5t39.5 -3.5t17.5 -8.5q5 -5 7.5 -12t2.5 -21v-657z" />
    <glyph glyph-name="section" unicode="&#xa7;" horiz-adv-x="920" 
d="M825 666q0 68 -54 104t-163 51q-45 0 -91 -12.5t-83 -37t-60.5 -61.5t-23.5 -85q0 -42 24 -70.5t62.5 -46.5t88 -28t100.5 -15q31 5 66.5 19.5t65 39t49 59.5t19.5 83zM1032 1313q0 -10 -4.5 -19.5t-15.5 -27.5q-11 -19 -20.5 -29t-20.5 -10q-8 0 -16 3t-25 11
q-15 7 -38.5 15.5t-56 15.5t-72 11.5t-85.5 4.5q-34 0 -74 -7.5t-74.5 -27t-57.5 -53.5t-23 -86q0 -34 14 -60.5t38.5 -46.5t57.5 -35t72 -26l121 -33q43 -11 82 -29t68 -45t46 -64t17 -85q-1 -54 -20.5 -99.5t-51 -82.5t-72.5 -64t-84 -43q28 -15 51 -33t40 -42t26.5 -55
t9.5 -72q0 -78 -31.5 -142t-89 -109.5t-138 -70t-177.5 -24.5q-67 0 -120 9.5t-93.5 23t-69 28.5t-45.5 27q-20 12 -25 21.5t-5 17.5t4 20t16 31q12 20 21 24t24 4q13 0 32 -9t36 -17q20 -10 45 -20.5t54.5 -19.5t62.5 -14.5t69 -5.5q44 0 93 10.5t90.5 35t68.5 64t27 97.5
q0 65 -49 103.5t-140 64.5q-50 14 -105 31.5t-101 47t-76 75t-29 116.5q0 84 57.5 154.5t171.5 108.5q-21 10 -43 29t-41 46t-31 61t-12 73q1 71 29.5 128.5t80 98t123.5 62.5t159 22q103 0 169.5 -14.5t112.5 -34.5q28 -13 35.5 -22t7.5 -17z" />
    <glyph glyph-name="dieresis" unicode="&#xa8;" horiz-adv-x="1024" 
d="M705 1118q0 -22 -7.5 -41.5t-21 -33.5t-31.5 -22.5t-39 -8.5q-19 0 -36.5 8.5t-30.5 22.5t-21 33.5t-8 41.5q0 47 27 78t69 31q20 0 38 -8.5t31.5 -23t21.5 -34.5t8 -43zM983 1118q0 -45 -28 -75.5t-70 -30.5q-19 0 -36.5 8.5t-31 22.5t-21.5 33.5t-8 41.5q0 47 27.5 78
t69.5 31q20 0 37.5 -8.5t31 -23t21.5 -34.5t8 -43z" />
    <glyph glyph-name="copyright" unicode="&#xa9;" horiz-adv-x="1696" 
d="M1251 1012q0 -19 -12 -43q-11 -22 -21.5 -30.5t-19.5 -8.5q-14 0 -29 7t-32 13q-13 5 -48.5 15t-89.5 10q-43 0 -81.5 -14.5t-68 -46.5t-46.5 -83.5t-17 -125.5q0 -73 19.5 -124.5t51 -84t71.5 -47.5t82 -15q51 0 82.5 6t48.5 13q12 5 27 11.5t26 6.5q15 0 22 -9.5
t15 -23.5q8 -15 13 -27t5 -24q0 -9 -5 -16t-19 -15t-33 -14.5t-39 -11.5q-18 -5 -34.5 -8.5t-34.5 -6t-39.5 -3.5t-49.5 -1q-77 0 -142.5 26t-113.5 75.5t-75 122t-27 165.5q0 95 27 168.5t75 123.5t114.5 76t145.5 26q33 0 59 -2t48.5 -6t42 -10t39.5 -13q41 -16 52 -26
t11 -25zM1593 700q0 124 -46.5 235.5t-127.5 196.5t-192 135t-240 50q-87 0 -165.5 -23t-145.5 -64t-121.5 -98t-93 -125.5t-59.5 -146.5t-21 -160t21 -159.5t60 -146t94 -125t122 -97.5t145.5 -63.5t163.5 -22.5q129 0 240 49.5t192 134t127.5 196t46.5 234.5zM1722 700
q0 -101 -26.5 -194.5t-74.5 -175t-115 -148t-149 -114t-175.5 -73.5t-194.5 -26t-194.5 26t-175 73.5t-149 114t-115.5 148t-74.5 175t-26.5 194.5t26.5 194.5t74.5 175t115.5 149t149 115t175 74t194.5 26.5t194.5 -26.5t175.5 -74.5t149 -115t115 -149t74.5 -175.5
t26.5 -193.5z" />
    <glyph glyph-name="ordfeminine" unicode="&#xaa;" horiz-adv-x="836" 
d="M768 1176q-15 12 -43 21t-59 9q-75 0 -120.5 -32t-76.5 -95q-14 -28 -22.5 -61.5t-8.5 -65.5q0 -24 5.5 -47t18 -40t33.5 -27.5t52 -10.5q41 0 72.5 19t54 50t38 71t25.5 82zM770 608q0 -9 -1.5 -16t-4.5 -17q-5 -16 -16 -32q-8 -11 -19.5 -15t-28.5 -4h-352
q-15 0 -20.5 5t-5.5 12q0 9 1.5 16t4.5 16q5 17 16 33q8 11 19 15t28 4h352q16 0 21.5 -5.5t5.5 -11.5zM879 1223q0 -11 -5 -31l-67 -297q-5 -22 -7.5 -41t-2.5 -29q0 -18 3 -29t3 -20q0 -11 -12.5 -16t-26.5 -8t-21.5 -3.5t-15.5 -0.5q-9 0 -13 5t-7 13q-2 5 -6.5 23.5
t-4.5 33.5q-42 -46 -85.5 -65t-94.5 -19q-46 0 -80.5 16t-57.5 42.5t-34.5 61t-11.5 71.5q0 29 3 54.5t9 48.5t15.5 46t23.5 47q17 31 44 60.5t63 53t80.5 38t97.5 14.5q34 0 66 -5t58 -12.5t44.5 -15t25.5 -12.5q17 -11 17 -24z" />
    <glyph glyph-name="guillemotleft" unicode="&#xab;" horiz-adv-x="985" 
d="M610 889q0 -11 -1 -27t-4 -33.5t-8.5 -33.5t-14.5 -27l-209 -238l121 -239q12 -23 12 -53q0 -32 -1.5 -51t-5.5 -30t-10.5 -14.5t-15.5 -3.5q-22 0 -47 43l-160 285q-12 22 -18 35.5t-6 32.5q0 18 11.5 35t27.5 34l219 240q23 25 37 39.5t23 21.5t15 8.5t13 1.5
q12 0 17 -8.5t5 -17.5zM936 877q0 -11 -0.5 -27.5t-3.5 -33.5t-9 -33.5t-16 -26.5l-209 -226l121 -239q12 -23 12 -53q0 -32 -1.5 -51t-5.5 -30t-10 -14.5t-15 -3.5q-13 0 -24 11t-23 32l-160 285q-13 22 -19 35.5t-6 32.5q0 18 12 35t27 34l219 227q24 25 38 39.5t23 22
t14.5 9t12.5 1.5q13 0 18 -8.5t5 -17.5z" />
    <glyph glyph-name="logicalnot" unicode="&#xac;" 
d="M1018 449q0 -11 -0.5 -17t-5.5 -12q-2 -2 -12.5 -5t-41.5 -3q-37 0 -48 4.5t-13 7.5q-3 3 -4.5 9t-1.5 20v276h-668q-12 0 -17.5 0.5t-10.5 5.5q-2 2 -6.5 14t-4.5 50q0 32 3.5 42.5t5.5 12.5q6 5 11.5 5.5t16.5 0.5h760q11 0 16.5 -0.5t12.5 -5.5q2 -2 5 -12.5t3 -42.5
v-350z" />
    <glyph glyph-name="registered" unicode="&#xae;" horiz-adv-x="1696" 
d="M1143 856q0 48 -35.5 81.5t-112.5 33.5h-164v-244q35 0 78 -1t74 -1q44 0 74.5 10t49.5 27t27.5 41t8.5 53zM1327 362q0 -6 -2 -9.5t-8 -8.5q-13 -10 -70 -10q-34 0 -48.5 7t-22.5 19l-166 258h-179v-247q0 -13 -3 -18.5t-9 -8.5q-9 -5 -18.5 -7.5t-34.5 -2.5t-36.5 2.5
t-16.5 7.5q-6 6 -8.5 10t-2.5 17v663q0 14 4 20t9 11q6 6 18.5 8t34.5 2h229q65 0 117 -13.5t88.5 -41t56 -70.5t19.5 -102q0 -62 -32.5 -114.5t-106.5 -84.5l168 -246q9 -14 14.5 -23.5t5.5 -17.5zM1593 700q0 124 -46.5 235.5t-127.5 196.5t-192 135t-240 50
q-87 0 -165.5 -23t-145.5 -64t-121.5 -98t-93 -125.5t-59.5 -146.5t-21 -160t21 -159.5t60 -146t94 -125t122 -97.5t145.5 -63.5t163.5 -22.5q129 0 240 49.5t192 134t127.5 196t46.5 234.5zM1722 700q0 -101 -26.5 -194.5t-74.5 -175t-115 -148t-149 -114t-175.5 -73.5
t-194.5 -26t-194.5 26t-175 73.5t-149 114t-115.5 148t-74.5 175t-26.5 194.5t26.5 194.5t74.5 175t115.5 149t149 115t175 74t194.5 26.5t194.5 -26.5t175.5 -74.5t149 -115t115 -149t74.5 -175.5t26.5 -193.5z" />
    <glyph glyph-name="macron" unicode="&#xaf;" horiz-adv-x="1024" 
d="M942 1107q-4 -21 -12 -34q-5 -8 -11.5 -10t-23.5 -2h-363q-9 0 -14 1t-8 3q-6 5 -7 9.5t-1 17.5q0 24 4 47.5t10 31.5t13.5 10.5t21.5 2.5h364q15 0 23 -4q6 -5 7 -11.5t1 -15.5q0 -25 -4 -46z" />
    <glyph glyph-name="macron" unicode="&#x2c9;" horiz-adv-x="1024" 
d="M942 1107q-4 -21 -12 -34q-5 -8 -11.5 -10t-23.5 -2h-363q-9 0 -14 1t-8 3q-6 5 -7 9.5t-1 17.5q0 24 4 47.5t10 31.5t13.5 10.5t21.5 2.5h364q15 0 23 -4q6 -5 7 -11.5t1 -15.5q0 -25 -4 -46z" />
    <glyph glyph-name="degree" unicode="&#xb0;" horiz-adv-x="995" 
d="M887 1102q0 34 -12.5 65.5t-35 55t-52.5 37.5t-64 14q-35 0 -64.5 -14t-52 -37.5t-35 -55t-12.5 -65.5q0 -35 12.5 -66t35 -54.5t52 -37.5t64.5 -14q34 0 64 14t52.5 37.5t35 54.5t12.5 66zM1004 1102q0 -58 -22.5 -109t-60.5 -89.5t-89 -60.5t-109 -22t-109 22
t-89.5 60.5t-60.5 89.5t-22 109q0 57 22 108t60.5 89.5t89.5 60.5t109 22t109 -22t89 -60.5t60.5 -89.5t22.5 -108z" />
    <glyph glyph-name="plusminus" unicode="&#xb1;" 
d="M1030 61q0 -27 -3.5 -36.5t-8.5 -14.5t-12 -7.5t-21 -2.5h-743q-14 0 -21 2.5t-12 7.5t-8.5 14.5t-3.5 36.5q0 28 3.5 38.5t8.5 15.5t12 7.5t21 2.5h743q14 0 21 -2.5t12 -7.5t8.5 -15.5t3.5 -38.5zM1030 694q0 -28 -3.5 -37t-8.5 -14t-12 -7.5t-21 -2.5h-307v-328
q0 -14 -2.5 -21t-7.5 -12t-16.5 -8.5t-39.5 -3.5t-38 3.5t-15 8.5t-7.5 12t-2.5 21v328h-307q-14 0 -21 2.5t-12 7.5t-8.5 14t-3.5 37t3.5 38.5t8.5 15.5t12 7.5t21 2.5h307v332q0 14 2.5 20.5t7.5 11.5t15 9t38 4t39.5 -4t16.5 -9t7.5 -11.5t2.5 -20.5v-332h307
q14 0 21 -2.5t12 -7.5t8.5 -15.5t3.5 -38.5z" />
    <glyph glyph-name="twosuperior" unicode="&#xb2;" horiz-adv-x="618" 
d="M776 1227q0 -71 -36 -134.5t-95 -123.5q-29 -29 -60.5 -56.5t-62.5 -52.5q-15 -12 -31 -24.5t-34 -26t-39 -30t-47 -36.5h274q17 0 23 -5.5t6 -14.5q0 -12 -7.5 -32.5t-17.5 -33.5q-9 -11 -18.5 -13.5t-22.5 -2.5h-399q-17 0 -26 6t-9 23q0 21 5.5 40t21.5 31
q23 16 67 48t94 70t98 77t79 70q49 48 79.5 97.5t30.5 100.5q0 27 -8.5 46t-23.5 31.5t-34.5 18t-41.5 5.5q-24 0 -44.5 -5.5t-37 -14t-29 -17.5t-20.5 -15q-22 -15 -32.5 -19.5t-15.5 -4.5t-12 4t-16 16q-8 11 -12.5 20t-4.5 15q0 11 9.5 22t38.5 31q34 23 85.5 43.5
t116.5 20.5q42 0 80 -11t66.5 -32.5t45.5 -54.5t17 -76z" />
    <glyph glyph-name="threesuperior" unicode="&#xb3;" horiz-adv-x="618" 
d="M756 1245q0 -66 -37.5 -115t-116.5 -77q49 -17 69.5 -58.5t20.5 -89.5q0 -78 -40.5 -135.5t-104 -95.5t-141 -57t-152.5 -19h-39q-29 0 -39 8.5t-10 22.5q0 35 8.5 51t42.5 16h49q45 0 98 9.5t98.5 33t76 63t30.5 99.5q0 35 -13.5 56t-35 32.5t-48 15t-52.5 3.5h-27
q-14 0 -18 4.5t-4 15.5q0 12 7.5 31t16.5 28q8 8 23 12t41 7q34 3 67 10.5t58.5 21.5t41 35t15.5 52q0 24 -8.5 40t-22.5 25.5t-32.5 13t-38.5 3.5q-21 0 -43 -5t-41 -12t-34 -13.5t-22 -10.5q-14 -8 -23.5 -13.5t-19.5 -5.5q-9 0 -16.5 6.5t-13.5 16.5q-13 17 -13 30
q0 20 41 43q48 26 102.5 42t112.5 16q36 0 70 -9.5t60 -28.5t41.5 -48.5t15.5 -69.5z" />
    <glyph glyph-name="acute" unicode="&#xb4;" horiz-adv-x="1024" 
d="M940 1321q0 -11 -8.5 -25.5t-28.5 -42.5l-139 -200q-6 -8 -13.5 -16.5t-15.5 -14.5q-8 -5 -19 -7.5t-36 -2.5q-32 0 -42.5 5.5t-10.5 16.5q0 8 5 19.5t13 25.5l125 234q14 25 37 32t65 7q39 0 53.5 -8.5t14.5 -22.5z" />
    <glyph glyph-name="mu" unicode="&#xb5;" horiz-adv-x="1010" 
d="M1045 858.5q-2 -8.5 -5 -20.5l-135 -635q-6 -29 -10 -57t-4 -42q0 -26 4 -41.5t4 -29.5t-15.5 -21t-33.5 -12q-20 -5 -31 -6.5t-22 -1.5q-14 0 -20 7.5t-11 18.5q-3 8 -7.5 29t-4.5 43v37q-15 -21 -41.5 -45t-61 -44t-76 -33t-86.5 -13q-44 0 -78 10.5t-59.5 27t-41 37.5
t-21.5 42l-99 -461q-3 -14 -16 -24.5t-51 -10.5q-25 0 -37 2.5t-20 7.5q-9 8 -9 19q0 10 6 34l254 1190q4 14 17 24.5t51 10.5q25 0 37 -2.5t20 -7.5q9 -8 9 -19q0 -5 -1.5 -13.5t-5.5 -20.5l-88 -416q-9 -47 -15.5 -92t-6.5 -70q0 -45 13 -75t34.5 -48t50 -25.5t60.5 -7.5
q53 0 105 21.5t95.5 60t75.5 91.5t45 116l100 473q4 14 17 24.5t51 10.5q25 0 37 -2.5t20 -7.5q5 -5 7 -8.5t2 -10.5q0 -5 -2 -13.5z" />
    <glyph glyph-name="mu" unicode="&#x3bc;" horiz-adv-x="1010" 
d="M1045 858.5q-2 -8.5 -5 -20.5l-135 -635q-6 -29 -10 -57t-4 -42q0 -26 4 -41.5t4 -29.5t-15.5 -21t-33.5 -12q-20 -5 -31 -6.5t-22 -1.5q-14 0 -20 7.5t-11 18.5q-3 8 -7.5 29t-4.5 43v37q-15 -21 -41.5 -45t-61 -44t-76 -33t-86.5 -13q-44 0 -78 10.5t-59.5 27t-41 37.5
t-21.5 42l-99 -461q-3 -14 -16 -24.5t-51 -10.5q-25 0 -37 2.5t-20 7.5q-9 8 -9 19q0 10 6 34l254 1190q4 14 17 24.5t51 10.5q25 0 37 -2.5t20 -7.5q9 -8 9 -19q0 -5 -1.5 -13.5t-5.5 -20.5l-88 -416q-9 -47 -15.5 -92t-6.5 -70q0 -45 13 -75t34.5 -48t50 -25.5t60.5 -7.5
q53 0 105 21.5t95.5 60t75.5 91.5t45 116l100 473q4 14 17 24.5t51 10.5q25 0 37 -2.5t20 -7.5q5 -5 7 -8.5t2 -10.5q0 -5 -2 -13.5z" />
    <glyph glyph-name="paragraph" unicode="&#xb6;" horiz-adv-x="1192" 
d="M1313 1384q0 -9 -3 -24t-10 -47l-344 -1618q-3 -14 -16 -24.5t-51 -10.5q-25 0 -37.5 2.5t-20.5 7.5q-8 8 -8 19q0 9 6 35l332 1558h-260l-338 -1587q-3 -14 -16 -24.5t-51 -10.5q-25 0 -37.5 2.5t-20.5 7.5q-8 8 -8 19q0 9 6 35l154 722q-82 9 -142 38t-99 76.5t-58 111
t-19 141.5q0 147 50.5 257.5t132.5 184.5t184.5 111t206.5 37h434q17 0 25 -4t8 -15z" />
    <glyph glyph-name="periodcentered" unicode="&#xb7;" horiz-adv-x="379" 
d="M422 635q0 -23 -8.5 -42.5t-23 -34.5t-33.5 -23.5t-40 -8.5t-39.5 8.5t-32.5 23.5t-22 34.5t-8 42.5q0 22 8 42t22 35t32.5 24t39.5 9t40 -9t33.5 -24t23 -35t8.5 -42z" />
    <glyph glyph-name="cedilla" unicode="&#xb8;" horiz-adv-x="1024" 
d="M623 -92q0 -14 -7.5 -32t-19.5 -44l-96 -203q-6 -11 -11 -18t-12.5 -11t-19 -5t-29.5 -1q-28 0 -36.5 8t-8.5 17q0 8 2.5 19t7.5 26l74 232q8 24 24.5 33.5t59.5 9.5q42 0 57 -9.5t15 -21.5z" />
    <glyph glyph-name="onesuperior" unicode="&#xb9;" horiz-adv-x="618" 
d="M520 670q-3 -13 -14 -21t-37 -8q-25 0 -35 1.5t-16 4.5q-8 5 -8 17q0 5 0.5 10.5t3.5 17.5l112 529l-110 -78q-19 -14 -26 -17.5t-15 -3.5q-11 0 -17 6.5t-14 20.5q-6 12 -10 22.5t-4 16.5q0 14 22 29l238 163q14 10 26 15.5t27 5.5q16 0 23 -6.5t2 -26.5z" />
    <glyph glyph-name="ordmasculine" unicode="&#xba;" horiz-adv-x="846" 
d="M797 1071q2 60 -30 96.5t-95 36.5q-39 0 -71 -15.5t-56.5 -42t-41.5 -61t-26 -71.5q-3 -14 -4.5 -29.5t-1.5 -28.5q0 -60 31.5 -96.5t93.5 -36.5q40 0 72.5 15.5t57 42t41 61.5t24.5 74q3 14 4.5 29t1.5 26zM797 608q0 -9 -1.5 -16t-4.5 -17q-4 -9 -7.5 -16t-9.5 -16
q-8 -11 -19 -15t-28 -4h-379q-15 0 -20.5 5t-5.5 12q0 9 1.5 16t4.5 16q5 17 16 33q8 11 19 15t28 4h379q16 0 21.5 -5.5t5.5 -11.5zM901 1077q0 -17 -1.5 -36t-4.5 -37q-11 -59 -38.5 -108t-68 -85t-91 -56t-107.5 -20q-105 0 -164 56t-59 159q0 16 1.5 35.5t4.5 38.5
q10 58 37.5 107t68 85t91.5 56t110 20q51 0 92.5 -15t70 -42.5t44 -67.5t14.5 -90z" />
    <glyph glyph-name="guillemotright" unicode="&#xbb;" horiz-adv-x="985" 
d="M598 520q0 -18 -11.5 -35t-27.5 -34l-219 -228q-24 -25 -38 -39.5t-23 -21.5t-14.5 -8.5t-12.5 -1.5q-12 0 -17.5 8.5t-5.5 17.5q0 11 0.5 27t3.5 33.5t9 33.5t16 27l209 225l-121 240q-12 21 -12 53q0 31 1.5 50.5t5.5 30t10.5 14t15.5 3.5q22 0 47 -43l159 -284
q13 -22 19 -35.5t6 -32.5zM924 520q0 -18 -12 -35t-27 -34l-219 -240q-23 -26 -37.5 -40t-23.5 -21.5t-14.5 -9t-12.5 -1.5q-13 0 -18 9t-5 18q0 11 1 27t4 33.5t9 33.5t15 27l209 237l-121 240q-13 23 -13 53q0 31 2 50.5t5.5 30t10 14t15.5 3.5q23 0 47 -43l160 -284
q12 -22 18.5 -35.5t6.5 -32.5z" />
    <glyph glyph-name="onequarter" unicode="&#xbc;" horiz-adv-x="1561" 
d="M1380 1380q0 -8 -6.5 -18t-15.5 -23l-948 -1331q-14 -18 -31 -23t-51 -5q-32 0 -46 5.5t-14 14.5q0 8 7 18.5t16 22.5l948 1331q14 19 31 24t51 5q32 0 45.5 -5.5t13.5 -15.5zM465 670q-3 -13 -14 -21t-37 -8q-25 0 -35 1.5t-16 4.5q-8 5 -8 17q0 5 0.5 10.5t3.5 17.5
l112 529l-110 -78q-19 -14 -26 -17.5t-15 -3.5q-11 0 -17 6.5t-14 20.5q-6 12 -10 22.5t-4 16.5q0 14 22 29l238 163q14 10 26 15.5t27 5.5q16 0 23 -6.5t2 -26.5zM1035 261h235l68 313zM1483 247q0 -7 -3 -16t-7 -17t-8 -15.5t-6 -11.5q-8 -12 -17.5 -15t-21.5 -3h-62
l-36 -178q-4 -13 -13 -21t-35 -8q-24 0 -33.5 0.5t-15.5 3.5q-10 7 -10 19q0 5 0.5 9.5t3.5 18.5l31 156h-340q-16 0 -20.5 7.5t-4.5 21.5t3.5 30t19.5 33l463 477q14 14 31 18.5t34 4.5q22 0 31.5 -8t9.5 -21q0 -12 -2.5 -23t-5.5 -28l-90 -420h84q12 0 16 -3t4 -11z" />
    <glyph glyph-name="onehalf" unicode="&#xbd;" horiz-adv-x="1561" 
d="M1380 1380q0 -8 -6.5 -18t-15.5 -23l-948 -1331q-14 -18 -31 -23t-51 -5q-32 0 -46 5.5t-14 14.5q0 8 7 18.5t16 22.5l948 1331q14 19 31 24t51 5q32 0 45.5 -5.5t13.5 -15.5zM466 670q-3 -13 -14 -21t-37 -8q-25 0 -35 1.5t-16 4.5q-8 5 -8 17q0 5 0.5 10.5t3.5 17.5
l112 529l-110 -78q-19 -14 -26 -17.5t-15 -3.5q-11 0 -17 6.5t-14 20.5q-6 12 -10 22.5t-4 16.5q0 14 22 29l238 163q14 10 26 15.5t27 5.5q16 0 23 -6.5t2 -26.5zM1509 587q0 -71 -36 -134.5t-95 -123.5q-29 -29 -60.5 -56.5t-62.5 -52.5q-15 -12 -31 -24.5t-34 -26
t-39 -30t-47 -36.5h274q17 0 23 -5.5t6 -14.5q0 -12 -7.5 -32.5t-17.5 -33.5q-9 -11 -18.5 -13.5t-22.5 -2.5h-399q-17 0 -26 6t-9 23q0 21 5.5 40t21.5 31q23 16 67 48t94 70t98 77t79 70q49 48 79.5 97.5t30.5 100.5q0 27 -8.5 46t-23.5 31.5t-34.5 18t-41.5 5.5
q-24 0 -44.5 -5.5t-37 -14t-29 -17.5t-20.5 -15q-22 -15 -32.5 -19.5t-15.5 -4.5t-12 4t-16 16q-8 11 -12.5 20t-4.5 15q0 11 9.5 22t38.5 31q34 23 85.5 43.5t116.5 20.5q42 0 80 -11t66.5 -32.5t45.5 -54.5t17 -76z" />
    <glyph glyph-name="threequarters" unicode="&#xbe;" horiz-adv-x="1561" 
d="M1519 1380q0 -8 -6.5 -18t-15.5 -23l-948 -1331q-14 -18 -31 -23t-51 -5q-32 0 -46 5.5t-14 14.5q0 8 7 18.5t16 22.5l948 1331q14 19 31 24t51 5q32 0 45.5 -5.5t13.5 -15.5zM791 1245q0 -66 -37.5 -115t-116.5 -77q49 -17 69.5 -58.5t20.5 -89.5q0 -78 -40.5 -135.5
t-104 -95.5t-141 -57t-152.5 -19h-39q-29 0 -39 8.5t-10 22.5q0 35 8.5 51t42.5 16h49q45 0 98 9.5t98.5 33t76 63t30.5 99.5q0 35 -13.5 56t-35 32.5t-48 15t-52.5 3.5h-27q-14 0 -18 4.5t-4 15.5q0 12 7.5 31t16.5 28q8 8 23 12t41 7q34 3 67 10.5t58.5 21.5t41 35
t15.5 52q0 24 -8.5 40t-22.5 25.5t-32.5 13t-38.5 3.5q-21 0 -43 -5t-41 -12t-34 -13.5t-22 -10.5q-14 -8 -23.5 -13.5t-19.5 -5.5q-9 0 -16.5 6.5t-13.5 16.5q-13 17 -13 30q0 20 41 43q48 26 102.5 42t112.5 16q36 0 70 -9.5t60 -28.5t41.5 -48.5t15.5 -69.5zM1106 261
h235l68 313zM1554 247q0 -7 -3 -16t-7 -17t-8 -15.5t-6 -11.5q-8 -12 -17.5 -15t-21.5 -3h-62l-36 -178q-4 -13 -13 -21t-35 -8q-24 0 -33.5 0.5t-15.5 3.5q-10 7 -10 19q0 5 0.5 9.5t3.5 18.5l31 156h-340q-16 0 -20.5 7.5t-4.5 21.5t3.5 30t19.5 33l463 477q14 14 31 18.5
t34 4.5q22 0 31.5 -8t9.5 -21q0 -12 -2.5 -23t-5.5 -28l-90 -420h84q12 0 16 -3t4 -11z" />
    <glyph glyph-name="questiondown" unicode="&#xbf;" horiz-adv-x="745" 
d="M758 63q0 -8 -7.5 -19t-39.5 -24q-35 -14 -92 -25t-142 -11t-149.5 24.5t-107.5 66.5t-65 98.5t-22 121.5q0 107 40 181t102 123t138 78t148 46l49 235q3 14 16.5 24.5t51.5 10.5q25 0 37 -2.5t20 -7.5q8 -8 8 -18q0 -11 -6 -35l-55 -271q-2 -12 -6 -20t-11.5 -13.5
t-19 -9t-29.5 -6.5q-81 -13 -144.5 -39t-107.5 -65t-67 -91t-23 -116q0 -39 13 -75t39.5 -63.5t66 -44t92.5 -16.5q41 0 70 3.5t50.5 8.5t37.5 11.5t31 11.5q18 8 27.5 10t15.5 2q15 0 22.5 -14.5t12.5 -28.5q5 -17 5.5 -25.5t0.5 -15.5zM846 1274q-1 -21 -9.5 -41t-23 -35
t-33 -24t-39.5 -9q-20 0 -38.5 9t-33 24t-23 35t-7.5 41q0 21 8.5 40.5t23 34t33 23t39.5 8.5q20 0 38.5 -8.5t33 -23t23 -34t8.5 -40.5z" />
    <glyph glyph-name="Agrave" unicode="&#xc0;" horiz-adv-x="1108" 
d="M813 1233l-387 -719h471zM1104 25q0 -16 -15.5 -24.5t-58.5 -8.5q-34 0 -45.5 3.5t-17.5 8.5q-5 5 -9 13.5t-6 25.5l-41 352h-549l-190 -354q-8 -14 -14 -24t-13 -13q-9 -6 -21.5 -9t-41.5 -3q-37 0 -51.5 7.5t-14.5 18.5q0 7 4.5 16.5t10.5 20.5l719 1288q7 12 13 20
t15.5 13t24 7.5t37.5 2.5q27 0 42.5 -2.5t24.5 -8.5t13 -15.5t6 -24.5l174 -1267q2 -13 3 -23.5t1 -19.5zM911 1485q0 -11 -10.5 -16.5t-42.5 -5.5q-25 0 -36 2.5t-19 7.5q-8 6 -15.5 14.5t-13.5 16.5l-139 200q-20 28 -28.5 42.5t-8.5 25.5q0 14 14.5 22.5t52.5 8.5
q42 0 65.5 -7t37.5 -32l125 -234q8 -14 13 -25.5t5 -19.5z" />
    <glyph glyph-name="Aacute" unicode="&#xc1;" horiz-adv-x="1108" 
d="M813 1233l-387 -719h471zM1104 25q0 -16 -15.5 -24.5t-58.5 -8.5q-34 0 -45.5 3.5t-17.5 8.5q-5 5 -9 13.5t-6 25.5l-41 352h-549l-190 -354q-8 -14 -14 -24t-13 -13q-9 -6 -21.5 -9t-41.5 -3q-37 0 -51.5 7.5t-14.5 18.5q0 7 4.5 16.5t10.5 20.5l719 1288q7 12 13 20
t15.5 13t24 7.5t37.5 2.5q27 0 42.5 -2.5t24.5 -8.5t13 -15.5t6 -24.5l174 -1267q2 -13 3 -23.5t1 -19.5zM1104 1772q0 -11 -8.5 -25.5t-28.5 -42.5l-139 -200q-6 -8 -13.5 -16.5t-15.5 -14.5q-8 -5 -19 -7.5t-36 -2.5q-32 0 -42.5 5.5t-10.5 16.5q0 8 5 19.5t13 25.5
l125 234q14 25 37 32t65 7q39 0 53.5 -8.5t14.5 -22.5z" />
    <glyph glyph-name="Acircumflex" unicode="&#xc2;" horiz-adv-x="1108" 
d="M813 1233l-387 -719h471zM1104 25q0 -16 -15.5 -24.5t-58.5 -8.5q-34 0 -45.5 3.5t-17.5 8.5q-5 5 -9 13.5t-6 25.5l-41 352h-549l-190 -354q-8 -14 -14 -24t-13 -13q-9 -6 -21.5 -9t-41.5 -3q-37 0 -51.5 7.5t-14.5 18.5q0 7 4.5 16.5t10.5 20.5l719 1288q7 12 13 20
t15.5 13t24 7.5t37.5 2.5q27 0 42.5 -2.5t24.5 -8.5t13 -15.5t6 -24.5l174 -1267q2 -13 3 -23.5t1 -19.5zM1136 1485q0 -12 -11 -17t-46 -5q-31 0 -49 4t-29 24l-102 177l-209 -179q-9 -8 -16 -13t-15.5 -8.5t-19 -5t-25.5 -1.5q-35 0 -49 6t-14 18q0 8 5 17.5t25 29.5
l234 217q18 17 29 27.5t21 16.5t19.5 8t24.5 2q16 0 26.5 -1.5t18.5 -7t15.5 -16t17.5 -27.5l125 -215q14 -24 19 -33.5t5 -17.5z" />
    <glyph glyph-name="Atilde" unicode="&#xc3;" horiz-adv-x="1108" 
d="M813 1233l-387 -719h471zM1104 25q0 -16 -15.5 -24.5t-58.5 -8.5q-34 0 -45.5 3.5t-17.5 8.5q-5 5 -9 13.5t-6 25.5l-41 352h-549l-190 -354q-8 -14 -14 -24t-13 -13q-9 -6 -21.5 -9t-41.5 -3q-37 0 -51.5 7.5t-14.5 18.5q0 7 4.5 16.5t10.5 20.5l719 1288q7 12 13 20
t15.5 13t24 7.5t37.5 2.5q27 0 42.5 -2.5t24.5 -8.5t13 -15.5t6 -24.5l174 -1267q2 -13 3 -23.5t1 -19.5zM1166 1670q0 -5 -2.5 -15.5t-10.5 -27.5q-31 -72 -76 -110t-110 -38q-44 0 -73 14t-54 29q-23 14 -47 27.5t-53 13.5q-22 0 -42 -11t-40 -42q-13 -20 -19.5 -25.5
t-21.5 -5.5h-43q-25 0 -25 16q0 5 2 15.5t10 27.5q31 72 77.5 110t115.5 38q22 0 39.5 -4t31.5 -10.5t26 -14t24 -14.5q23 -14 47.5 -27.5t50.5 -13.5q23 0 43.5 11t40.5 42q12 20 19 25.5t22 5.5h43q25 0 25 -16z" />
    <glyph glyph-name="Adieresis" unicode="&#xc4;" horiz-adv-x="1108" 
d="M813 1233l-387 -719h471zM1104 25q0 -16 -15.5 -24.5t-58.5 -8.5q-34 0 -45.5 3.5t-17.5 8.5q-5 5 -9 13.5t-6 25.5l-41 352h-549l-190 -354q-8 -14 -14 -24t-13 -13q-9 -6 -21.5 -9t-41.5 -3q-37 0 -51.5 7.5t-14.5 18.5q0 7 4.5 16.5t10.5 20.5l719 1288q7 12 13 20
t15.5 13t24 7.5t37.5 2.5q27 0 42.5 -2.5t24.5 -8.5t13 -15.5t6 -24.5l174 -1267q2 -13 3 -23.5t1 -19.5zM805 1569q0 -22 -7.5 -41.5t-21 -33.5t-31.5 -22.5t-39 -8.5q-19 0 -36.5 8.5t-30.5 22.5t-21 33.5t-8 41.5q0 47 27 78t69 31q20 0 38 -8.5t31.5 -23t21.5 -34.5
t8 -43zM1083 1569q0 -45 -28 -75.5t-70 -30.5q-19 0 -36.5 8.5t-31 22.5t-21.5 33.5t-8 41.5q0 47 27.5 78t69.5 31q20 0 37.5 -8.5t31 -23t21.5 -34.5t8 -43z" />
    <glyph glyph-name="Aring" unicode="&#xc5;" horiz-adv-x="1108" 
d="M813 1233l-387 -719h471zM1104 25q0 -16 -15.5 -24.5t-58.5 -8.5q-34 0 -45.5 3.5t-17.5 8.5q-5 5 -9 13.5t-6 25.5l-41 352h-549l-190 -354q-8 -14 -14 -24t-13 -13q-9 -6 -21.5 -9t-41.5 -3q-37 0 -51.5 7.5t-14.5 18.5q0 7 4.5 16.5t10.5 20.5l719 1288q7 12 13 20
t15.5 13t24 7.5t37.5 2.5q27 0 42.5 -2.5t24.5 -8.5t13 -15.5t6 -24.5l174 -1267q2 -13 3 -23.5t1 -19.5zM960 1651q0 19 -8 37t-21.5 31.5t-31.5 21.5t-37 8t-37 -8t-31.5 -21.5t-21.5 -31.5t-8 -37t8 -37t21.5 -31.5t31.5 -21.5t37 -8t37 8t31.5 21.5t21.5 31.5t8 37z
M1050 1651q0 -39 -15 -73.5t-40.5 -60t-59.5 -40t-73 -14.5t-73.5 14.5t-60 40t-40.5 60t-15 73.5t15 73.5t40.5 60t60 40.5t73.5 15t73 -15t59.5 -40.5t40.5 -60t15 -73.5z" />
    <glyph glyph-name="AE" unicode="&#xc6;" horiz-adv-x="1710" 
d="M543 514h405l158 748zM1937 1352q0 -6 -2.5 -17t-6 -22t-7 -20t-4.5 -13q-9 -22 -20.5 -30.5t-32.5 -8.5h-617l-92 -428h545q17 0 21.5 -6t4.5 -14q0 -6 -2.5 -17t-6 -22t-7 -20t-4.5 -13q-9 -22 -20.5 -30.5t-32.5 -8.5h-525l-116 -551h645q17 0 21.5 -6t4.5 -14
q0 -6 -2.5 -17t-6 -22t-7 -20t-4.5 -13q-9 -22 -20.5 -30.5t-32.5 -8.5h-699q-61 0 -61 35q0 8 1 16.5t3 18.5l70 325h-471l-267 -354q-11 -14 -19.5 -24.5t-19.5 -16.5q-8 -3 -21 -5.5t-42 -2.5q-35 0 -54.5 6.5t-19.5 15.5q0 8 6.5 19t16.5 22l997 1293q11 14 27 19t45 5
h809q17 0 21.5 -6t4.5 -14z" />
    <glyph glyph-name="Ccedilla" unicode="&#xc7;" horiz-adv-x="1051" 
d="M1276 1290q0 -8 -3.5 -19.5t-17.5 -33.5q-14 -23 -24 -32t-23 -9q-11 0 -39.5 12.5t-66.5 26.5q-35 12 -84.5 23.5t-120.5 11.5q-58 0 -119.5 -19.5t-120 -60t-110.5 -101t-91 -143t-62 -187t-23 -231.5q0 -213 93 -317.5t259 -104.5q46 0 85.5 5.5t70 12.5t52.5 14.5
t34 11.5q20 8 35.5 14t27.5 6t21.5 -6t21.5 -31q8 -17 11 -31.5t3 -25.5q0 -14 -12.5 -25.5t-52.5 -25.5q-50 -19 -126 -36.5t-189 -17.5q-111 0 -201.5 36t-155 106t-100 174t-35.5 241q0 138 27 251t69 201.5t92.5 152.5t96.5 106q89 81 198.5 121.5t218.5 40.5
q62 0 113 -7t90.5 -17.5t67.5 -21.5t43 -20q26 -14 36.5 -24t10.5 -21zM746 -92q0 -14 -7.5 -32t-19.5 -44l-96 -203q-6 -11 -11 -18t-12.5 -11t-19 -5t-29.5 -1q-28 0 -36.5 8t-8.5 17q0 8 2.5 19t7.5 26l74 232q8 24 24.5 33.5t59.5 9.5q42 0 57 -9.5t15 -21.5z" />
    <glyph glyph-name="Egrave" unicode="&#xc8;" horiz-adv-x="1032" 
d="M1260 1352q0 -6 -2.5 -17t-6.5 -22t-7.5 -20t-4.5 -13q-9 -22 -20.5 -30.5t-32.5 -8.5h-617l-92 -428h545q17 0 22 -6t5 -14q0 -6 -2.5 -17t-6.5 -22t-7.5 -20t-4.5 -13q-9 -22 -20 -30.5t-33 -8.5h-524l-117 -551h645q17 0 22 -6t5 -14q0 -6 -2.5 -17t-6.5 -22t-7.5 -20
t-4.5 -13q-9 -22 -20 -30.5t-33 -8.5h-699q-29 0 -45 8t-16 27q0 8 1 16.5t3 18.5l264 1245q3 15 9 26t14 17t20 10t41 4h709q17 0 22 -6t5 -14zM993 1485q0 -11 -10.5 -16.5t-42.5 -5.5q-25 0 -36 2.5t-19 7.5q-8 6 -15.5 14.5t-13.5 16.5l-139 200q-20 28 -28.5 42.5
t-8.5 25.5q0 14 14.5 22.5t52.5 8.5q42 0 65.5 -7t37.5 -32l125 -234q8 -14 13 -25.5t5 -19.5z" />
    <glyph glyph-name="Eacute" unicode="&#xc9;" horiz-adv-x="1032" 
d="M1260 1352q0 -6 -2.5 -17t-6.5 -22t-7.5 -20t-4.5 -13q-9 -22 -20.5 -30.5t-32.5 -8.5h-617l-92 -428h545q17 0 22 -6t5 -14q0 -6 -2.5 -17t-6.5 -22t-7.5 -20t-4.5 -13q-9 -22 -20 -30.5t-33 -8.5h-524l-117 -551h645q17 0 22 -6t5 -14q0 -6 -2.5 -17t-6.5 -22t-7.5 -20
t-4.5 -13q-9 -22 -20 -30.5t-33 -8.5h-699q-29 0 -45 8t-16 27q0 8 1 16.5t3 18.5l264 1245q3 15 9 26t14 17t20 10t41 4h709q17 0 22 -6t5 -14zM1135 1772q0 -11 -8.5 -25.5t-28.5 -42.5l-139 -200q-6 -8 -13.5 -16.5t-15.5 -14.5q-8 -5 -19 -7.5t-36 -2.5q-32 0 -42.5 5.5
t-10.5 16.5q0 8 5 19.5t13 25.5l125 234q14 25 37 32t65 7q39 0 53.5 -8.5t14.5 -22.5z" />
    <glyph glyph-name="Ecircumflex" unicode="&#xca;" horiz-adv-x="1032" 
d="M1260 1352q0 -6 -2.5 -17t-6.5 -22t-7.5 -20t-4.5 -13q-9 -22 -20.5 -30.5t-32.5 -8.5h-617l-92 -428h545q17 0 22 -6t5 -14q0 -6 -2.5 -17t-6.5 -22t-7.5 -20t-4.5 -13q-9 -22 -20 -30.5t-33 -8.5h-524l-117 -551h645q17 0 22 -6t5 -14q0 -6 -2.5 -17t-6.5 -22t-7.5 -20
t-4.5 -13q-9 -22 -20 -30.5t-33 -8.5h-699q-29 0 -45 8t-16 27q0 8 1 16.5t3 18.5l264 1245q3 15 9 26t14 17t20 10t41 4h709q17 0 22 -6t5 -14zM1171 1485q0 -12 -11 -17t-46 -5q-31 0 -49 4t-29 24l-102 177l-209 -179q-9 -8 -16 -13t-15.5 -8.5t-19 -5t-25.5 -1.5
q-35 0 -49 6t-14 18q0 8 5 17.5t25 29.5l234 217q18 17 29 27.5t21 16.5t19.5 8t24.5 2q16 0 26.5 -1.5t18.5 -7t15.5 -16t17.5 -27.5l125 -215q14 -24 19 -33.5t5 -17.5z" />
    <glyph glyph-name="Edieresis" unicode="&#xcb;" horiz-adv-x="1032" 
d="M1260 1352q0 -6 -2.5 -17t-6.5 -22t-7.5 -20t-4.5 -13q-9 -22 -20.5 -30.5t-32.5 -8.5h-617l-92 -428h545q17 0 22 -6t5 -14q0 -6 -2.5 -17t-6.5 -22t-7.5 -20t-4.5 -13q-9 -22 -20 -30.5t-33 -8.5h-524l-117 -551h645q17 0 22 -6t5 -14q0 -6 -2.5 -17t-6.5 -22t-7.5 -20
t-4.5 -13q-9 -22 -20 -30.5t-33 -8.5h-699q-29 0 -45 8t-16 27q0 8 1 16.5t3 18.5l264 1245q3 15 9 26t14 17t20 10t41 4h709q17 0 22 -6t5 -14zM859 1569q0 -22 -7.5 -41.5t-21 -33.5t-31.5 -22.5t-39 -8.5q-19 0 -36.5 8.5t-30.5 22.5t-21 33.5t-8 41.5q0 47 27 78t69 31
q20 0 38 -8.5t31.5 -23t21.5 -34.5t8 -43zM1137 1569q0 -45 -28 -75.5t-70 -30.5q-19 0 -36.5 8.5t-31 22.5t-21.5 33.5t-8 41.5q0 47 27.5 78t69.5 31q20 0 37.5 -8.5t31 -23t21.5 -34.5t8 -43z" />
    <glyph glyph-name="Igrave" unicode="&#xcc;" horiz-adv-x="477" 
d="M598 1350q0 -11 -6 -35l-275 -1288q-3 -16 -17.5 -25.5t-55.5 -9.5q-26 0 -40 2.5t-22 7.5q-10 7 -10 21q0 10 6 34l275 1289q3 15 17.5 24.5t55.5 9.5q26 0 40 -2.5t22 -7.5q10 -8 10 -20zM636 1485q0 -11 -10.5 -16.5t-42.5 -5.5q-25 0 -36 2.5t-19 7.5
q-8 6 -15.5 14.5t-13.5 16.5l-139 200q-20 28 -28.5 42.5t-8.5 25.5q0 14 14.5 22.5t52.5 8.5q42 0 65.5 -7t37.5 -32l125 -234q8 -14 13 -25.5t5 -19.5z" />
    <glyph glyph-name="Iacute" unicode="&#xcd;" horiz-adv-x="477" 
d="M598 1350q0 -11 -6 -35l-275 -1288q-3 -16 -17.5 -25.5t-55.5 -9.5q-26 0 -40 2.5t-22 7.5q-10 7 -10 21q0 10 6 34l275 1289q3 15 17.5 24.5t55.5 9.5q26 0 40 -2.5t22 -7.5q10 -8 10 -20zM798 1772q0 -11 -8.5 -25.5t-28.5 -42.5l-139 -200q-6 -8 -13.5 -16.5
t-15.5 -14.5q-8 -5 -19 -7.5t-36 -2.5q-32 0 -42.5 5.5t-10.5 16.5q0 8 5 19.5t13 25.5l125 234q14 25 37 32t65 7q39 0 53.5 -8.5t14.5 -22.5z" />
    <glyph glyph-name="Icircumflex" unicode="&#xce;" horiz-adv-x="477" 
d="M598 1350q0 -11 -6 -35l-275 -1288q-3 -16 -17.5 -25.5t-55.5 -9.5q-26 0 -40 2.5t-22 7.5q-10 7 -10 21q0 10 6 34l275 1289q3 15 17.5 24.5t55.5 9.5q26 0 40 -2.5t22 -7.5q10 -8 10 -20zM834 1485q0 -12 -11 -17t-46 -5q-31 0 -49 4t-29 24l-102 177l-209 -179
q-9 -8 -16 -13t-15.5 -8.5t-19 -5t-25.5 -1.5q-35 0 -49 6t-14 18q0 8 5 17.5t25 29.5l234 217q18 17 29 27.5t21 16.5t19.5 8t24.5 2q16 0 26.5 -1.5t18.5 -7t15.5 -16t17.5 -27.5l125 -215q14 -24 19 -33.5t5 -17.5z" />
    <glyph glyph-name="Idieresis" unicode="&#xcf;" horiz-adv-x="477" 
d="M598 1350q0 -11 -6 -35l-275 -1288q-3 -16 -17.5 -25.5t-55.5 -9.5q-26 0 -40 2.5t-22 7.5q-10 7 -10 21q0 10 6 34l275 1289q3 15 17.5 24.5t55.5 9.5q26 0 40 -2.5t22 -7.5q10 -8 10 -20zM513 1569q0 -22 -7.5 -41.5t-21 -33.5t-31.5 -22.5t-39 -8.5q-19 0 -36.5 8.5
t-30.5 22.5t-21 33.5t-8 41.5q0 47 27 78t69 31q20 0 38 -8.5t31.5 -23t21.5 -34.5t8 -43zM791 1569q0 -45 -28 -75.5t-70 -30.5q-19 0 -36.5 8.5t-31 22.5t-21.5 33.5t-8 41.5q0 47 27.5 78t69.5 31q20 0 37.5 -8.5t31 -23t21.5 -34.5t8 -43z" />
    <glyph glyph-name="Eth" unicode="&#xd0;" horiz-adv-x="1311" 
d="M1223 866q0 190 -90.5 285.5t-268.5 95.5h-291l-102 -483h225q33 0 33 -16q0 -10 -4 -23t-10 -29q-8 -20 -19.5 -33.5t-40.5 -13.5h-209l-110 -524h301q80 0 154.5 25t139.5 71.5t118.5 112.5t92 148.5t60 179.5t21.5 204zM1382 881q0 -131 -29 -247t-80 -214
t-120.5 -176t-150.5 -132t-169.5 -83t-177.5 -29h-419q-29 0 -45.5 8t-16.5 27q0 8 1 16.5t3 18.5l123 579h-106q-33 0 -33 17q0 9 4 22t10 29q8 20 19.5 33.5t40.5 13.5h90l116 551q3 15 9 26t14 17t20 10t41 4h363q114 0 205.5 -30.5t155.5 -92t98 -153.5t34 -215z" />
    <glyph glyph-name="Ntilde" unicode="&#xd1;" horiz-adv-x="1251" 
d="M1372 1350q0 -11 -6 -35l-272 -1278q-3 -14 -8 -21t-13 -12q-6 -5 -21 -8.5t-44 -3.5q-32 0 -46 9.5t-22 29.5l-403 1061l-226 -1065q-3 -16 -16.5 -25.5t-54.5 -9.5q-26 0 -38 2.5t-20 7.5q-10 7 -10 21q0 10 6 34l256 1207l-20 45q-6 12 -9.5 20.5t-3.5 18.5
q0 15 15 23.5t61 8.5q47 0 66.5 -6.5t27.5 -27.5l426 -1106l236 1106q3 15 16.5 24.5t55.5 9.5q26 0 37.5 -2.5t19.5 -7.5q10 -8 10 -20zM1266 1670q0 -5 -2.5 -15.5t-10.5 -27.5q-31 -72 -76 -110t-110 -38q-44 0 -73 14t-54 29q-23 14 -47 27.5t-53 13.5q-22 0 -42 -11
t-40 -42q-13 -20 -19.5 -25.5t-21.5 -5.5h-43q-25 0 -25 16q0 5 2 15.5t10 27.5q31 72 77.5 110t115.5 38q22 0 39.5 -4t31.5 -10.5t26 -14t24 -14.5q23 -14 47.5 -27.5t50.5 -13.5q23 0 43.5 11t40.5 42q12 20 19 25.5t22 5.5h43q25 0 25 -16z" />
    <glyph glyph-name="Ograve" unicode="&#xd2;" horiz-adv-x="1335" 
d="M1251 907q1 86 -19 154.5t-59 116t-97.5 73t-135.5 25.5q-99 0 -184.5 -41t-154.5 -117t-120 -185t-80 -245q-12 -62 -19 -118t-7 -105q-1 -87 18.5 -155.5t59 -116t98.5 -72.5t137 -25q98 0 182.5 40t152.5 115.5t118.5 184t81.5 244.5q14 63 21 119t7 108zM1407 905
q0 -52 -8 -108.5t-21 -116.5q-37 -173 -105 -305.5t-160.5 -222t-205.5 -135.5t-239 -46q-104 0 -187.5 32.5t-142 95t-89.5 154t-30 210.5q0 52 6.5 107.5t20.5 117.5q37 173 106 306t162 223.5t206.5 137t240.5 46.5q103 0 185.5 -33t141 -96.5t89.5 -156t30 -210.5z
M1167 1485q0 -11 -10.5 -16.5t-42.5 -5.5q-25 0 -36 2.5t-19 7.5q-8 6 -15.5 14.5t-13.5 16.5l-139 200q-20 28 -28.5 42.5t-8.5 25.5q0 14 14.5 22.5t52.5 8.5q42 0 65.5 -7t37.5 -32l125 -234q8 -14 13 -25.5t5 -19.5z" />
    <glyph glyph-name="Oacute" unicode="&#xd3;" horiz-adv-x="1335" 
d="M1251 907q1 86 -19 154.5t-59 116t-97.5 73t-135.5 25.5q-99 0 -184.5 -41t-154.5 -117t-120 -185t-80 -245q-12 -62 -19 -118t-7 -105q-1 -87 18.5 -155.5t59 -116t98.5 -72.5t137 -25q98 0 182.5 40t152.5 115.5t118.5 184t81.5 244.5q14 63 21 119t7 108zM1407 905
q0 -52 -8 -108.5t-21 -116.5q-37 -173 -105 -305.5t-160.5 -222t-205.5 -135.5t-239 -46q-104 0 -187.5 32.5t-142 95t-89.5 154t-30 210.5q0 52 6.5 107.5t20.5 117.5q37 173 106 306t162 223.5t206.5 137t240.5 46.5q103 0 185.5 -33t141 -96.5t89.5 -156t30 -210.5z
M1227 1772q0 -11 -8.5 -25.5t-28.5 -42.5l-139 -200q-6 -8 -13.5 -16.5t-15.5 -14.5q-8 -5 -19 -7.5t-36 -2.5q-32 0 -42.5 5.5t-10.5 16.5q0 8 5 19.5t13 25.5l125 234q14 25 37 32t65 7q39 0 53.5 -8.5t14.5 -22.5z" />
    <glyph glyph-name="Ocircumflex" unicode="&#xd4;" horiz-adv-x="1335" 
d="M1251 907q1 86 -19 154.5t-59 116t-97.5 73t-135.5 25.5q-99 0 -184.5 -41t-154.5 -117t-120 -185t-80 -245q-12 -62 -19 -118t-7 -105q-1 -87 18.5 -155.5t59 -116t98.5 -72.5t137 -25q98 0 182.5 40t152.5 115.5t118.5 184t81.5 244.5q14 63 21 119t7 108zM1407 905
q0 -52 -8 -108.5t-21 -116.5q-37 -173 -105 -305.5t-160.5 -222t-205.5 -135.5t-239 -46q-104 0 -187.5 32.5t-142 95t-89.5 154t-30 210.5q0 52 6.5 107.5t20.5 117.5q37 173 106 306t162 223.5t206.5 137t240.5 46.5q103 0 185.5 -33t141 -96.5t89.5 -156t30 -210.5z
M1284 1485q0 -12 -11 -17t-46 -5q-31 0 -49 4t-29 24l-102 177l-209 -179q-9 -8 -16 -13t-15.5 -8.5t-19 -5t-25.5 -1.5q-35 0 -49 6t-14 18q0 8 5 17.5t25 29.5l234 217q18 17 29 27.5t21 16.5t19.5 8t24.5 2q16 0 26.5 -1.5t18.5 -7t15.5 -16t17.5 -27.5l125 -215
q14 -24 19 -33.5t5 -17.5z" />
    <glyph glyph-name="Otilde" unicode="&#xd5;" horiz-adv-x="1335" 
d="M1251 907q1 86 -19 154.5t-59 116t-97.5 73t-135.5 25.5q-99 0 -184.5 -41t-154.5 -117t-120 -185t-80 -245q-12 -62 -19 -118t-7 -105q-1 -87 18.5 -155.5t59 -116t98.5 -72.5t137 -25q98 0 182.5 40t152.5 115.5t118.5 184t81.5 244.5q14 63 21 119t7 108zM1407 905
q0 -52 -8 -108.5t-21 -116.5q-37 -173 -105 -305.5t-160.5 -222t-205.5 -135.5t-239 -46q-104 0 -187.5 32.5t-142 95t-89.5 154t-30 210.5q0 52 6.5 107.5t20.5 117.5q37 173 106 306t162 223.5t206.5 137t240.5 46.5q103 0 185.5 -33t141 -96.5t89.5 -156t30 -210.5z
M1336 1670q0 -5 -2.5 -15.5t-10.5 -27.5q-31 -72 -76 -110t-110 -38q-44 0 -73 14t-54 29q-23 14 -47 27.5t-53 13.5q-22 0 -42 -11t-40 -42q-13 -20 -19.5 -25.5t-21.5 -5.5h-43q-25 0 -25 16q0 5 2 15.5t10 27.5q31 72 77.5 110t115.5 38q22 0 39.5 -4t31.5 -10.5t26 -14
t24 -14.5q23 -14 47.5 -27.5t50.5 -13.5q23 0 43.5 11t40.5 42q12 20 19 25.5t22 5.5h43q25 0 25 -16z" />
    <glyph glyph-name="Odieresis" unicode="&#xd6;" horiz-adv-x="1335" 
d="M1251 907q1 86 -19 154.5t-59 116t-97.5 73t-135.5 25.5q-99 0 -184.5 -41t-154.5 -117t-120 -185t-80 -245q-12 -62 -19 -118t-7 -105q-1 -87 18.5 -155.5t59 -116t98.5 -72.5t137 -25q98 0 182.5 40t152.5 115.5t118.5 184t81.5 244.5q14 63 21 119t7 108zM1407 905
q0 -52 -8 -108.5t-21 -116.5q-37 -173 -105 -305.5t-160.5 -222t-205.5 -135.5t-239 -46q-104 0 -187.5 32.5t-142 95t-89.5 154t-30 210.5q0 52 6.5 107.5t20.5 117.5q37 173 106 306t162 223.5t206.5 137t240.5 46.5q103 0 185.5 -33t141 -96.5t89.5 -156t30 -210.5z
M961 1569q0 -22 -7.5 -41.5t-21 -33.5t-31.5 -22.5t-39 -8.5q-19 0 -36.5 8.5t-30.5 22.5t-21 33.5t-8 41.5q0 47 27 78t69 31q20 0 38 -8.5t31.5 -23t21.5 -34.5t8 -43zM1239 1569q0 -45 -28 -75.5t-70 -30.5q-19 0 -36.5 8.5t-31 22.5t-21.5 33.5t-8 41.5q0 47 27.5 78
t69.5 31q20 0 37.5 -8.5t31 -23t21.5 -34.5t8 -43z" />
    <glyph glyph-name="multiply" unicode="&#xd7;" 
d="M903 383q0 -9 -6 -19.5t-23 -27.5q-18 -19 -27.5 -23t-17.5 -4t-13.5 3t-16.5 14l-205 219l-207 -219q-11 -11 -17 -14t-14 -3t-17 4t-28 23q-17 17 -22.5 27.5t-5.5 19.5q0 8 3.5 14t12.5 17l209 223l-209 221q-9 11 -12.5 17t-3.5 14q0 9 5.5 19.5t22.5 27.5
q19 19 28 23t17 4t14 -3t17 -14l207 -219l205 219q11 11 16.5 14t13.5 3t17.5 -4t27.5 -23q17 -17 23 -27.5t6 -19.5q0 -8 -3.5 -14t-12.5 -17l-209 -221l209 -223q9 -11 12.5 -17t3.5 -14z" />
    <glyph glyph-name="Oslash" unicode="&#xd8;" horiz-adv-x="1335" 
d="M1251 907q0 51 -7 95.5t-21 82.5l-762 -899q78 -90 227 -90q98 0 182.5 40t152.5 115.5t118.5 184t81.5 244.5q14 63 21 119t7 108zM1165 1186q-38 43 -94.5 66.5t-130.5 23.5q-99 0 -184.5 -41t-154.5 -117t-120 -185t-80 -245q-12 -62 -18 -118t-8 -105q-2 -51 5 -95.5
t21 -84.5zM1460 1378q0 -9 -3 -14t-9 -14l-117 -140q37 -58 56.5 -134.5t19.5 -170.5q0 -52 -8 -108.5t-21 -116.5q-37 -173 -105 -305.5t-160.5 -222t-205.5 -135.5t-239 -46q-93 0 -169.5 26t-133.5 77l-68 -80q-11 -13 -25.5 -18t-48.5 -5q-31 0 -44 7t-13 16t2 15t10 14
l115 137q-35 60 -54.5 135t-19.5 168q0 52 6.5 107.5t20.5 117.5q37 173 106 306t162 223.5t206.5 137t240.5 46.5q91 0 166.5 -26t132.5 -77l69 80q11 13 26.5 18t49.5 5q29 0 42 -6.5t13 -16.5z" />
    <glyph glyph-name="Ugrave" unicode="&#xd9;" horiz-adv-x="1288" 
d="M1423 1350q0 -11 -6 -35l-192 -905q-21 -99 -59.5 -179.5t-102.5 -138.5t-157.5 -89.5t-223.5 -31.5q-117 0 -200 26t-136.5 73t-78.5 112.5t-25 145.5q0 32 3 66t11 69l188 883q4 15 18.5 24.5t55.5 9.5q26 0 40 -2.5t22 -7.5q10 -8 10 -20q0 -11 -6 -35l-185 -862
q-6 -31 -8 -60t-2 -55q0 -56 15.5 -101t49.5 -76.5t88 -48t130 -16.5q87 0 154.5 18t118 57t84.5 100.5t52 148.5l197 926q3 15 17.5 24.5t56.5 9.5q26 0 39.5 -2.5t21.5 -7.5q10 -8 10 -20zM1071 1485q0 -11 -10.5 -16.5t-42.5 -5.5q-25 0 -36 2.5t-19 7.5q-8 6 -15.5 14.5
t-13.5 16.5l-139 200q-20 28 -28.5 42.5t-8.5 25.5q0 14 14.5 22.5t52.5 8.5q42 0 65.5 -7t37.5 -32l125 -234q8 -14 13 -25.5t5 -19.5z" />
    <glyph glyph-name="Uacute" unicode="&#xda;" horiz-adv-x="1288" 
d="M1423 1350q0 -11 -6 -35l-192 -905q-21 -99 -59.5 -179.5t-102.5 -138.5t-157.5 -89.5t-223.5 -31.5q-117 0 -200 26t-136.5 73t-78.5 112.5t-25 145.5q0 32 3 66t11 69l188 883q4 15 18.5 24.5t55.5 9.5q26 0 40 -2.5t22 -7.5q10 -8 10 -20q0 -11 -6 -35l-185 -862
q-6 -31 -8 -60t-2 -55q0 -56 15.5 -101t49.5 -76.5t88 -48t130 -16.5q87 0 154.5 18t118 57t84.5 100.5t52 148.5l197 926q3 15 17.5 24.5t56.5 9.5q26 0 39.5 -2.5t21.5 -7.5q10 -8 10 -20zM1206 1772q0 -11 -8.5 -25.5t-28.5 -42.5l-139 -200q-6 -8 -13.5 -16.5
t-15.5 -14.5q-8 -5 -19 -7.5t-36 -2.5q-32 0 -42.5 5.5t-10.5 16.5q0 8 5 19.5t13 25.5l125 234q14 25 37 32t65 7q39 0 53.5 -8.5t14.5 -22.5z" />
    <glyph glyph-name="Ucircumflex" unicode="&#xdb;" horiz-adv-x="1288" 
d="M1423 1350q0 -11 -6 -35l-192 -905q-21 -99 -59.5 -179.5t-102.5 -138.5t-157.5 -89.5t-223.5 -31.5q-117 0 -200 26t-136.5 73t-78.5 112.5t-25 145.5q0 32 3 66t11 69l188 883q4 15 18.5 24.5t55.5 9.5q26 0 40 -2.5t22 -7.5q10 -8 10 -20q0 -11 -6 -35l-185 -862
q-6 -31 -8 -60t-2 -55q0 -56 15.5 -101t49.5 -76.5t88 -48t130 -16.5q87 0 154.5 18t118 57t84.5 100.5t52 148.5l197 926q3 15 17.5 24.5t56.5 9.5q26 0 39.5 -2.5t21.5 -7.5q10 -8 10 -20zM1253 1485q0 -12 -11 -17t-46 -5q-31 0 -49 4t-29 24l-102 177l-209 -179
q-9 -8 -16 -13t-15.5 -8.5t-19 -5t-25.5 -1.5q-35 0 -49 6t-14 18q0 8 5 17.5t25 29.5l234 217q18 17 29 27.5t21 16.5t19.5 8t24.5 2q16 0 26.5 -1.5t18.5 -7t15.5 -16t17.5 -27.5l125 -215q14 -24 19 -33.5t5 -17.5z" />
    <glyph glyph-name="Udieresis" unicode="&#xdc;" horiz-adv-x="1288" 
d="M1423 1350q0 -11 -6 -35l-192 -905q-21 -99 -59.5 -179.5t-102.5 -138.5t-157.5 -89.5t-223.5 -31.5q-117 0 -200 26t-136.5 73t-78.5 112.5t-25 145.5q0 32 3 66t11 69l188 883q4 15 18.5 24.5t55.5 9.5q26 0 40 -2.5t22 -7.5q10 -8 10 -20q0 -11 -6 -35l-185 -862
q-6 -31 -8 -60t-2 -55q0 -56 15.5 -101t49.5 -76.5t88 -48t130 -16.5q87 0 154.5 18t118 57t84.5 100.5t52 148.5l197 926q3 15 17.5 24.5t56.5 9.5q26 0 39.5 -2.5t21.5 -7.5q10 -8 10 -20zM914 1569q0 -22 -7.5 -41.5t-21 -33.5t-31.5 -22.5t-39 -8.5q-19 0 -36.5 8.5
t-30.5 22.5t-21 33.5t-8 41.5q0 47 27 78t69 31q20 0 38 -8.5t31.5 -23t21.5 -34.5t8 -43zM1192 1569q0 -45 -28 -75.5t-70 -30.5q-19 0 -36.5 8.5t-31 22.5t-21.5 33.5t-8 41.5q0 47 27.5 78t69.5 31q20 0 37.5 -8.5t31 -23t21.5 -34.5t8 -43z" />
    <glyph glyph-name="Yacute" unicode="&#xdd;" horiz-adv-x="1059" 
d="M1335 1356q-2 -5 -5 -11.5t-15 -21.5l-594 -733l-119 -563q-3 -16 -17.5 -25.5t-56.5 -9.5q-26 0 -39.5 2.5t-21.5 7.5q-10 7 -10 21q0 10 6 34l112 533l-266 719q-6 17 -10 26t-2 19q4 11 14 18q8 3 19.5 5.5t40.5 2.5q35 0 48 -5.5t19 -22.5l240 -631l506 631
q14 18 32.5 23t53.5 5q25 0 39.5 -2.5t17.5 -5.5q6 -3 7 -8t1 -8zM1083 1772q0 -11 -8.5 -25.5t-28.5 -42.5l-139 -200q-6 -8 -13.5 -16.5t-15.5 -14.5q-8 -5 -19 -7.5t-36 -2.5q-32 0 -42.5 5.5t-10.5 16.5q0 8 5 19.5t13 25.5l125 234q14 25 37 32t65 7q39 0 53.5 -8.5
t14.5 -22.5z" />
    <glyph glyph-name="Thorn" unicode="&#xde;" horiz-adv-x="1102" 
d="M1038 786q0 101 -63 153t-197 52h-260l-110 -522q30 -2 61 -3.5t61 -2.5t56.5 -1.5t46.5 -0.5q91 0 159.5 14.5t116.5 44.5t77.5 76t43.5 109q5 21 6.5 42t1.5 39zM1194 801q0 -52 -12 -107q-18 -84 -59 -150.5t-108 -112t-160.5 -69.5t-217.5 -24q-57 0 -126.5 2.5
t-129.5 5.5l-68 -319q-3 -16 -15.5 -25.5t-53.5 -9.5q-26 0 -40 2.5t-22 7.5q-10 7 -10 21q0 10 6 34l275 1289q3 15 16.5 24.5t54.5 9.5q26 0 39 -2.5t21 -7.5q10 -8 10 -20q0 -11 -6 -35l-43 -199h250q106 0 181.5 -23t124 -64.5t71 -99.5t22.5 -128z" />
    <glyph glyph-name="germandbls" unicode="&#xdf;" horiz-adv-x="1077" 
d="M1098 311q0 -69 -23 -129.5t-69 -105t-114 -70.5t-159 -26q-44 0 -79.5 4t-64.5 10.5t-53.5 15t-46.5 17.5q-32 14 -46.5 27t-14.5 26q0 14 7.5 28t15.5 25q9 13 17 19t24 6q14 0 35 -10.5t50 -23.5t67.5 -23.5t88.5 -10.5q51 0 91.5 14t69.5 39.5t44.5 61t15.5 78.5
q0 37 -12.5 67t-34 55t-49.5 46.5t-59 42.5q-30 21 -60.5 42.5t-54.5 45.5t-39.5 52t-15.5 62q0 27 6 50t19 45.5t32 46t45 51.5q39 41 66 73t43.5 59.5t24 53t7.5 53.5q0 29 -10.5 54.5t-30.5 44.5t-48 30t-62 11q-58 0 -98 -17t-67 -47t-43.5 -72.5t-27.5 -93.5
l-215 -1011q-3 -14 -16 -24.5t-51 -10.5q-25 0 -37.5 2.5t-20.5 7.5q-8 8 -8 18q0 11 6 35l211 992q18 81 48.5 143.5t76 104.5t107 63.5t141.5 21.5q78 0 133.5 -18t90.5 -49t51 -71t16 -85q0 -81 -42.5 -155t-117.5 -156q-23 -26 -38 -45t-24 -34.5t-12.5 -28t-3.5 -23.5
q0 -15 7 -29.5t23.5 -31t44 -36.5t69.5 -47q85 -55 129.5 -117t44.5 -143z" />
    <glyph glyph-name="agrave" unicode="&#xe0;" horiz-adv-x="991" 
d="M877 739q-36 25 -86 42.5t-119 17.5q-60 0 -109 -16.5t-88.5 -47t-71.5 -75t-57 -99.5q-23 -51 -35 -112.5t-12 -126.5q0 -40 9 -80.5t31.5 -72.5t60.5 -52.5t96 -20.5q43 0 81.5 17.5t71.5 47.5t61 70t50.5 85t38.5 92.5t26 91.5zM1018 801q0 -10 -2 -22t-4 -21
l-117 -555q-6 -29 -10 -57t-4 -42q0 -26 4 -41.5t4 -29.5t-15.5 -21t-33.5 -12q-20 -5 -31.5 -6.5t-22.5 -1.5q-14 0 -19.5 7.5t-10.5 18.5q-3 8 -7 25.5t-4 34.5q0 14 1.5 33.5t3.5 31.5q-66 -85 -137.5 -124t-163.5 -39q-71 0 -124.5 26t-89.5 70.5t-54.5 102t-18.5 120.5
q0 87 18 169.5t60 164.5q27 53 70 103.5t100.5 89.5t127.5 63t150 24q53 0 104 -9t93.5 -21.5t74 -27t44.5 -26.5q14 -11 14 -28zM841 1034q0 -11 -10.5 -16.5t-42.5 -5.5q-25 0 -36 2.5t-19 7.5q-8 6 -15.5 14.5t-13.5 16.5l-139 200q-20 28 -28.5 42.5t-8.5 25.5
q0 14 14.5 22.5t52.5 8.5q42 0 65.5 -7t37.5 -32l125 -234q8 -14 13 -25.5t5 -19.5z" />
    <glyph glyph-name="aacute" unicode="&#xe1;" horiz-adv-x="991" 
d="M1079 1321q0 -11 -8.5 -25.5t-28.5 -42.5l-139 -200q-6 -8 -13.5 -16.5t-15.5 -14.5q-8 -5 -19 -7.5t-36 -2.5q-32 0 -42.5 5.5t-10.5 16.5q0 8 5 19.5t13 25.5l125 234q14 25 37.5 32t65.5 7q38 0 52.5 -8.5t14.5 -22.5zM979 739q-35 25 -85.5 42.5t-119.5 17.5
q-60 0 -109 -16.5t-88.5 -47t-71 -75t-56.5 -99.5q-23 -51 -35.5 -112.5t-12.5 -126.5q0 -40 9 -80.5t31.5 -72.5t60.5 -52.5t96 -20.5q64 0 118.5 38t96.5 97t71 130.5t44 138.5zM1120 801q0 -10 -2 -22t-4 -21l-117 -555q-6 -29 -10 -57t-4 -42q0 -26 4 -41.5t4 -29.5
t-15 -21t-34 -12q-20 -5 -31 -6.5t-22 -1.5q-14 0 -20 7.5t-11 18.5q-3 8 -6.5 25.5t-3.5 34.5q0 14 1 33.5t3 31.5q-66 -84 -137.5 -123.5t-163.5 -39.5q-71 0 -124.5 26t-89.5 70.5t-54.5 102t-18.5 120.5q0 87 18 169.5t60 164.5q27 53 70.5 103.5t101 89.5t127.5 63
t150 24q53 0 104 -9t93.5 -21.5t73.5 -27t44 -26.5q14 -11 14 -28z" />
    <glyph glyph-name="acircumflex" unicode="&#xe2;" horiz-adv-x="991" 
d="M877 739q-36 25 -86 42.5t-119 17.5q-60 0 -109 -16.5t-88.5 -47t-71.5 -75t-57 -99.5q-23 -51 -35 -112.5t-12 -126.5q0 -40 9 -80.5t31.5 -72.5t60.5 -52.5t96 -20.5q43 0 81.5 17.5t71.5 47.5t61 70t50.5 85t38.5 92.5t26 91.5zM1018 801q0 -10 -2 -22t-4 -21
l-117 -555q-6 -29 -10 -57t-4 -42q0 -26 4 -41.5t4 -29.5t-15.5 -21t-33.5 -12q-20 -5 -31.5 -6.5t-22.5 -1.5q-14 0 -19.5 7.5t-10.5 18.5q-3 8 -7 25.5t-4 34.5q0 14 1.5 33.5t3.5 31.5q-66 -85 -137.5 -124t-163.5 -39q-71 0 -124.5 26t-89.5 70.5t-54.5 102t-18.5 120.5
q0 87 18 169.5t60 164.5q27 53 70 103.5t100.5 89.5t127.5 63t150 24q53 0 104 -9t93.5 -21.5t74 -27t44.5 -26.5q14 -11 14 -28zM1012 1034q0 -12 -11 -17t-46 -5q-31 0 -49 4t-29 24l-102 177l-209 -179q-9 -8 -16 -13t-15.5 -8.5t-19 -5t-25.5 -1.5q-35 0 -49 6t-14 18
q0 8 5 17.5t25 29.5l234 217q18 17 29 27.5t21 16.5t19.5 8t24.5 2q16 0 26.5 -1.5t18.5 -7t15.5 -16t17.5 -27.5l125 -215q14 -24 19 -33.5t5 -17.5z" />
    <glyph glyph-name="atilde" unicode="&#xe3;" horiz-adv-x="991" 
d="M877 739q-36 25 -86 42.5t-119 17.5q-60 0 -109 -16.5t-88.5 -47t-71.5 -75t-57 -99.5q-23 -51 -35 -112.5t-12 -126.5q0 -40 9 -80.5t31.5 -72.5t60.5 -52.5t96 -20.5q43 0 81.5 17.5t71.5 47.5t61 70t50.5 85t38.5 92.5t26 91.5zM1018 801q0 -10 -2 -22t-4 -21
l-117 -555q-6 -29 -10 -57t-4 -42q0 -26 4 -41.5t4 -29.5t-15.5 -21t-33.5 -12q-20 -5 -31.5 -6.5t-22.5 -1.5q-14 0 -19.5 7.5t-10.5 18.5q-3 8 -7 25.5t-4 34.5q0 14 1.5 33.5t3.5 31.5q-66 -85 -137.5 -124t-163.5 -39q-71 0 -124.5 26t-89.5 70.5t-54.5 102t-18.5 120.5
q0 87 18 169.5t60 164.5q27 53 70 103.5t100.5 89.5t127.5 63t150 24q53 0 104 -9t93.5 -21.5t74 -27t44.5 -26.5q14 -11 14 -28zM1021 1219q0 -5 -2.5 -15.5t-10.5 -27.5q-31 -72 -76 -110t-110 -38q-44 0 -73 14t-54 29q-23 14 -47 27.5t-53 13.5q-22 0 -42 -11t-40 -42
q-13 -20 -19.5 -25.5t-21.5 -5.5h-43q-25 0 -25 16q0 5 2 15.5t10 27.5q31 72 77.5 110t115.5 38q22 0 39.5 -4t31.5 -10.5t26 -14t24 -14.5q23 -14 47.5 -27.5t50.5 -13.5q23 0 43.5 11t40.5 42q12 20 19 25.5t22 5.5h43q25 0 25 -16z" />
    <glyph glyph-name="adieresis" unicode="&#xe4;" horiz-adv-x="991" 
d="M877 739q-36 25 -86 42.5t-119 17.5q-60 0 -109 -16.5t-88.5 -47t-71.5 -75t-57 -99.5q-23 -51 -35 -112.5t-12 -126.5q0 -40 9 -80.5t31.5 -72.5t60.5 -52.5t96 -20.5q43 0 81.5 17.5t71.5 47.5t61 70t50.5 85t38.5 92.5t26 91.5zM1018 801q0 -10 -2 -22t-4 -21
l-117 -555q-6 -29 -10 -57t-4 -42q0 -26 4 -41.5t4 -29.5t-15.5 -21t-33.5 -12q-20 -5 -31.5 -6.5t-22.5 -1.5q-14 0 -19.5 7.5t-10.5 18.5q-3 8 -7 25.5t-4 34.5q0 14 1.5 33.5t3.5 31.5q-66 -85 -137.5 -124t-163.5 -39q-71 0 -124.5 26t-89.5 70.5t-54.5 102t-18.5 120.5
q0 87 18 169.5t60 164.5q27 53 70 103.5t100.5 89.5t127.5 63t150 24q53 0 104 -9t93.5 -21.5t74 -27t44.5 -26.5q14 -11 14 -28zM705 1118q0 -22 -7.5 -41.5t-21 -33.5t-31.5 -22.5t-39 -8.5q-19 0 -36.5 8.5t-30.5 22.5t-21 33.5t-8 41.5q0 47 27 78t69 31q20 0 38 -8.5
t31.5 -23t21.5 -34.5t8 -43zM983 1118q0 -45 -28 -75.5t-70 -30.5q-19 0 -36.5 8.5t-31 22.5t-21.5 33.5t-8 41.5q0 47 27.5 78t69.5 31q20 0 37.5 -8.5t31 -23t21.5 -34.5t8 -43z" />
    <glyph glyph-name="aring" unicode="&#xe5;" horiz-adv-x="991" 
d="M877 739q-36 25 -86 42.5t-119 17.5q-60 0 -109 -16.5t-88.5 -47t-71.5 -75t-57 -99.5q-23 -51 -35 -112.5t-12 -126.5q0 -40 9 -80.5t31.5 -72.5t60.5 -52.5t96 -20.5q43 0 81.5 17.5t71.5 47.5t61 70t50.5 85t38.5 92.5t26 91.5zM1018 801q0 -10 -2 -22t-4 -21
l-117 -555q-6 -29 -10 -57t-4 -42q0 -26 4 -41.5t4 -29.5t-15.5 -21t-33.5 -12q-20 -5 -31.5 -6.5t-22.5 -1.5q-14 0 -19.5 7.5t-10.5 18.5q-3 8 -7 25.5t-4 34.5q0 14 1.5 33.5t3.5 31.5q-66 -85 -137.5 -124t-163.5 -39q-71 0 -124.5 26t-89.5 70.5t-54.5 102t-18.5 120.5
q0 87 18 169.5t60 164.5q27 53 70 103.5t100.5 89.5t127.5 63t150 24q53 0 104 -9t93.5 -21.5t74 -27t44.5 -26.5q14 -11 14 -28zM864 1200q0 19 -8 37t-21.5 31.5t-31.5 21.5t-37 8t-37 -8t-31.5 -21.5t-21.5 -31.5t-8 -37t8 -37t21.5 -31.5t31.5 -21.5t37 -8t37 8
t31.5 21.5t21.5 31.5t8 37zM954 1200q0 -39 -15 -73.5t-40.5 -60t-59.5 -40t-73 -14.5t-73.5 14.5t-60 40t-40.5 60t-15 73.5t15 73.5t40.5 60t60 40.5t73.5 15t73 -15t59.5 -40.5t40.5 -60t15 -73.5z" />
    <glyph glyph-name="ae" unicode="&#xe6;" horiz-adv-x="1485" 
d="M877 739q-36 25 -86 42.5t-119 17.5q-60 0 -109 -16.5t-88.5 -47t-71.5 -75t-57 -99.5q-23 -51 -35 -112.5t-12 -126.5q0 -40 9 -80.5t31.5 -72.5t60.5 -52.5t96 -20.5q43 0 81.5 17.5t71.5 47.5t61 70t50.5 85t38.5 92.5t26 91.5zM1417 698q0 21 -7.5 41.5t-23.5 36
t-41.5 25.5t-62.5 10q-66 0 -122.5 -31.5t-101 -83t-74.5 -118t-42 -136.5q141 8 232.5 37t145.5 67t75.5 79t21.5 73zM1546 707q0 -160 -152 -255.5t-456 -121.5q1 -56 18.5 -98.5t46.5 -71t66.5 -42.5t77.5 -14q59 0 107.5 15.5t76.5 27.5q14 7 25 12t20 5q14 0 23.5 -11
t17.5 -26q13 -26 13 -43q0 -5 -2 -10t-8 -11t-18 -13.5t-32 -16.5q-43 -20 -98 -36.5t-135 -16.5q-57 0 -111 16t-96 45q-19 12 -36 34t-24 36l-6 -32t-6 -30t-7 -27.5t-13 -19.5q-13 -6 -36 -8t-38 -2q-12 0 -22.5 5.5t-10.5 20.5q0 8 1.5 23.5t4.5 32.5l5 30t6 27
q-62 -80 -134.5 -115.5t-164.5 -35.5q-71 0 -124.5 26t-89.5 70.5t-54.5 102t-18.5 120.5q0 87 18 169.5t60 164.5q27 53 70 103.5t100.5 89.5t127.5 63t150 24q53 0 101 -8t88 -19.5t70 -24.5t46 -23q11 -8 16 -14t7 -9q57 47 124.5 72.5t147.5 25.5q68 0 117 -15.5
t80.5 -42.5t46 -65t14.5 -83z" />
    <glyph glyph-name="ccedilla" unicode="&#xe7;" horiz-adv-x="774" 
d="M897 823q0 -17 -18 -45q-10 -15 -20.5 -28t-24.5 -13q-13 0 -24.5 6t-33.5 17q-23 12 -56.5 21.5t-90.5 9.5q-61 0 -120 -31t-105.5 -88.5t-75.5 -138t-29 -179.5q0 -57 14 -103t40 -78.5t63 -49.5t82 -17q49 0 88 9t65 20q28 11 46.5 21t33.5 10q16 0 24.5 -14t16.5 -29
q6 -14 9 -24t3 -21t-10.5 -20.5t-48.5 -26.5q-43 -19 -102 -35t-131 -16q-79 0 -140.5 25.5t-103.5 72t-64 113t-22 147.5q0 140 45 247.5t115.5 180t156.5 110t168 37.5q72 0 117 -11t82 -30q35 -17 43 -29t8 -20zM563 -92q0 -14 -7.5 -32t-19.5 -44l-96 -203
q-6 -11 -11 -18t-12.5 -11t-19 -5t-29.5 -1q-28 0 -36.5 8t-8.5 17q0 8 2.5 19t7.5 26l74 232q8 24 24.5 33.5t59.5 9.5q42 0 57 -9.5t15 -21.5z" />
    <glyph glyph-name="egrave" unicode="&#xe8;" horiz-adv-x="846" 
d="M778 698q0 21 -6.5 41.5t-22 36t-40.5 25.5t-62 10q-66 0 -122.5 -31.5t-101 -83t-74.5 -118t-42 -136.5q138 8 228.5 37t144.5 67t76 79t22 73zM907 707q0 -160 -152 -255.5t-456 -121.5q1 -56 18.5 -98.5t46.5 -71t66.5 -42.5t77.5 -14q59 0 107.5 15.5t76.5 27.5
q14 7 25 12t20 5q14 0 23.5 -11t17.5 -26q13 -26 13 -43q0 -5 -2 -10t-8 -11t-18 -13.5t-32 -16.5q-43 -20 -98 -36.5t-135 -16.5q-57 0 -111 15t-96 46q-57 40 -92 115t-35 178q0 57 12 125q18 94 59.5 176.5t102.5 144t139.5 97.5t171.5 36q68 0 117 -15.5t80.5 -42.5
t46 -65t14.5 -83zM851 1034q0 -11 -10.5 -16.5t-42.5 -5.5q-25 0 -36 2.5t-19 7.5q-8 6 -15.5 14.5t-13.5 16.5l-139 200q-20 28 -28.5 42.5t-8.5 25.5q0 14 14.5 22.5t52.5 8.5q42 0 65.5 -7t37.5 -32l125 -234q8 -14 13 -25.5t5 -19.5z" />
    <glyph glyph-name="eacute" unicode="&#xe9;" horiz-adv-x="846" 
d="M778 698q0 21 -6.5 41.5t-22 36t-40.5 25.5t-62 10q-66 0 -122.5 -31.5t-101 -83t-74.5 -118t-42 -136.5q138 8 228.5 37t144.5 67t76 79t22 73zM907 707q0 -160 -152 -255.5t-456 -121.5q1 -56 18.5 -98.5t46.5 -71t66.5 -42.5t77.5 -14q59 0 107.5 15.5t76.5 27.5
q14 7 25 12t20 5q14 0 23.5 -11t17.5 -26q13 -26 13 -43q0 -5 -2 -10t-8 -11t-18 -13.5t-32 -16.5q-43 -20 -98 -36.5t-135 -16.5q-57 0 -111 15t-96 46q-57 40 -92 115t-35 178q0 57 12 125q18 94 59.5 176.5t102.5 144t139.5 97.5t171.5 36q68 0 117 -15.5t80.5 -42.5
t46 -65t14.5 -83zM921 1321q0 -11 -8.5 -25.5t-28.5 -42.5l-139 -200q-6 -8 -13.5 -16.5t-15.5 -14.5q-8 -5 -19 -7.5t-36 -2.5q-32 0 -42.5 5.5t-10.5 16.5q0 8 5 19.5t13 25.5l125 234q14 25 37 32t65 7q39 0 53.5 -8.5t14.5 -22.5z" />
    <glyph glyph-name="ecircumflex" unicode="&#xea;" horiz-adv-x="846" 
d="M778 698q0 21 -6.5 41.5t-22 36t-40.5 25.5t-62 10q-66 0 -122.5 -31.5t-101 -83t-74.5 -118t-42 -136.5q138 8 228.5 37t144.5 67t76 79t22 73zM907 707q0 -160 -152 -255.5t-456 -121.5q1 -56 18.5 -98.5t46.5 -71t66.5 -42.5t77.5 -14q59 0 107.5 15.5t76.5 27.5
q14 7 25 12t20 5q14 0 23.5 -11t17.5 -26q13 -26 13 -43q0 -5 -2 -10t-8 -11t-18 -13.5t-32 -16.5q-43 -20 -98 -36.5t-135 -16.5q-57 0 -111 15t-96 46q-57 40 -92 115t-35 178q0 57 12 125q18 94 59.5 176.5t102.5 144t139.5 97.5t171.5 36q68 0 117 -15.5t80.5 -42.5
t46 -65t14.5 -83zM988 1034q0 -12 -11 -17t-46 -5q-31 0 -49 4t-29 24l-102 177l-209 -179q-9 -8 -16 -13t-15.5 -8.5t-19 -5t-25.5 -1.5q-35 0 -49 6t-14 18q0 8 5 17.5t25 29.5l234 217q18 17 29 27.5t21 16.5t19.5 8t24.5 2q16 0 26.5 -1.5t18.5 -7t15.5 -16t17.5 -27.5
l125 -215q14 -24 19 -33.5t5 -17.5z" />
    <glyph glyph-name="edieresis" unicode="&#xeb;" horiz-adv-x="846" 
d="M778 698q0 21 -6.5 41.5t-22 36t-40.5 25.5t-62 10q-66 0 -122.5 -31.5t-101 -83t-74.5 -118t-42 -136.5q138 8 228.5 37t144.5 67t76 79t22 73zM907 707q0 -160 -152 -255.5t-456 -121.5q1 -56 18.5 -98.5t46.5 -71t66.5 -42.5t77.5 -14q59 0 107.5 15.5t76.5 27.5
q14 7 25 12t20 5q14 0 23.5 -11t17.5 -26q13 -26 13 -43q0 -5 -2 -10t-8 -11t-18 -13.5t-32 -16.5q-43 -20 -98 -36.5t-135 -16.5q-57 0 -111 15t-96 46q-57 40 -92 115t-35 178q0 57 12 125q18 94 59.5 176.5t102.5 144t139.5 97.5t171.5 36q68 0 117 -15.5t80.5 -42.5
t46 -65t14.5 -83zM675 1118q0 -22 -7.5 -41.5t-21 -33.5t-31.5 -22.5t-39 -8.5q-19 0 -36.5 8.5t-30.5 22.5t-21 33.5t-8 41.5q0 47 27 78t69 31q20 0 38 -8.5t31.5 -23t21.5 -34.5t8 -43zM953 1118q0 -45 -28 -75.5t-70 -30.5q-19 0 -36.5 8.5t-31 22.5t-21.5 33.5t-8 41.5
q0 47 27.5 78t69.5 31q20 0 37.5 -8.5t31 -23t21.5 -34.5t8 -43z" />
    <glyph glyph-name="igrave" unicode="&#xec;" horiz-adv-x="408" 
d="M453 887q0 -5 -1 -11t-3 -14l-142 -659q-6 -29 -10 -57t-4 -42q0 -26 4 -41.5t4 -29.5t-15.5 -21t-33.5 -12q-20 -5 -31 -6.5t-22 -1.5q-14 0 -21 6.5t-12 17.5q-3 8 -5.5 23.5t-2.5 44.5q0 20 4 50t12 65l137 643q3 15 7.5 23.5t9.5 13.5q8 8 20.5 12.5t26.5 7.5
q15 3 26 4.5t25 1.5q27 0 27 -18zM533 1034q0 -11 -10.5 -16.5t-42.5 -5.5q-25 0 -36 2.5t-19 7.5q-8 6 -15.5 14.5t-13.5 16.5l-139 200q-20 28 -28.5 42.5t-8.5 25.5q0 14 14.5 22.5t52.5 8.5q42 0 65.5 -7t37.5 -32l125 -234q8 -14 13 -25.5t5 -19.5z" />
    <glyph glyph-name="iacute" unicode="&#xed;" horiz-adv-x="408" 
d="M453 887q0 -5 -1 -11t-3 -14l-142 -659q-6 -29 -10 -57t-4 -42q0 -26 4 -41.5t4 -29.5t-15.5 -21t-33.5 -12q-20 -5 -31 -6.5t-22 -1.5q-14 0 -21 6.5t-12 17.5q-3 8 -5.5 23.5t-2.5 44.5q0 20 4 50t12 65l137 643q3 15 7.5 23.5t9.5 13.5q8 8 20.5 12.5t26.5 7.5
q15 3 26 4.5t25 1.5q27 0 27 -18zM654 1321q0 -11 -8.5 -25.5t-28.5 -42.5l-139 -200q-6 -8 -13.5 -16.5t-15.5 -14.5q-8 -5 -19 -7.5t-36 -2.5q-32 0 -42.5 5.5t-10.5 16.5q0 8 5 19.5t13 25.5l125 234q14 25 37 32t65 7q39 0 53.5 -8.5t14.5 -22.5z" />
    <glyph glyph-name="icircumflex" unicode="&#xee;" horiz-adv-x="408" 
d="M453 887q0 -5 -1 -11t-3 -14l-142 -659q-6 -29 -10 -57t-4 -42q0 -26 4 -41.5t4 -29.5t-15.5 -21t-33.5 -12q-20 -5 -31 -6.5t-22 -1.5q-14 0 -21 6.5t-12 17.5q-3 8 -5.5 23.5t-2.5 44.5q0 20 4 50t12 65l137 643q3 15 7.5 23.5t9.5 13.5q8 8 20.5 12.5t26.5 7.5
q15 3 26 4.5t25 1.5q27 0 27 -18zM744 1034q0 -12 -11 -17t-46 -5q-31 0 -49 4t-29 24l-102 177l-209 -179q-9 -8 -16 -13t-15.5 -8.5t-19 -5t-25.5 -1.5q-35 0 -49 6t-14 18q0 8 5 17.5t25 29.5l234 217q18 17 29 27.5t21 16.5t19.5 8t24.5 2q16 0 26.5 -1.5t18.5 -7
t15.5 -16t17.5 -27.5l125 -215q14 -24 19 -33.5t5 -17.5z" />
    <glyph glyph-name="idieresis" unicode="&#xef;" horiz-adv-x="408" 
d="M453 887q0 -5 -1 -11t-3 -14l-142 -659q-6 -29 -10 -57t-4 -42q0 -26 4 -41.5t4 -29.5t-15.5 -21t-33.5 -12q-20 -5 -31 -6.5t-22 -1.5q-14 0 -21 6.5t-12 17.5q-3 8 -5.5 23.5t-2.5 44.5q0 20 4 50t12 65l137 643q3 15 7.5 23.5t9.5 13.5q8 8 20.5 12.5t26.5 7.5
q15 3 26 4.5t25 1.5q27 0 27 -18zM370 1118q0 -22 -7.5 -41.5t-21 -33.5t-31.5 -22.5t-39 -8.5q-19 0 -36.5 8.5t-30.5 22.5t-21 33.5t-8 41.5q0 47 27 78t69 31q20 0 38 -8.5t31.5 -23t21.5 -34.5t8 -43zM648 1118q0 -45 -28 -75.5t-70 -30.5q-19 0 -36.5 8.5t-31 22.5
t-21.5 33.5t-8 41.5q0 47 27.5 78t69.5 31q20 0 37.5 -8.5t31 -23t21.5 -34.5t8 -43z" />
    <glyph glyph-name="eth" unicode="&#xf0;" horiz-adv-x="983" 
d="M864 528q0 54 -13.5 100.5t-41.5 80.5t-70 53.5t-100 19.5q-69 0 -126 -30t-99.5 -80.5t-70.5 -116t-40 -135.5q-2 -9 -5 -31t-3 -45q0 -54 13.5 -100t40.5 -80.5t68 -54t97 -19.5q70 0 127.5 30t100 78t71 109.5t41.5 124.5q5 25 7.5 49t2.5 47zM1071 1180
q0 -10 -5.5 -15t-16.5 -10l-136 -49q39 -93 67 -211t28 -266q0 -112 -20.5 -203.5t-56.5 -163.5t-84 -125t-103 -88t-114.5 -52t-117.5 -17q-80 0 -144.5 23.5t-110.5 68.5t-70.5 112t-24.5 154q0 28 3.5 54t6.5 46q17 98 60 181.5t103 144t133 95t150 34.5q60 0 104 -14
t74 -33.5t47 -39.5t23 -32q-4 29 -9.5 64.5t-14.5 73.5t-21 76t-28 73l-121 -45q-13 -5 -21.5 -7.5t-17.5 -2.5q-8 0 -16.5 7t-16.5 25q-8 23 -8 33q0 16 22 25l142 53q-6 12 -14.5 27.5t-28.5 50.5q-26 44 -40 63t-14 31q0 9 7.5 18.5t19.5 18.5q16 11 26.5 16.5t22.5 5.5
q6 0 11.5 -2t12.5 -9t17 -19t25 -33q17 -25 35 -56t36 -69l119 43q13 5 21.5 7.5t17.5 2.5q8 0 16.5 -7t16.5 -26q5 -12 6.5 -19.5t1.5 -12.5z" />
    <glyph glyph-name="ntilde" unicode="&#xf1;" horiz-adv-x="1001" 
d="M989 670q0 -48 -8.5 -101t-24.5 -118l-61 -248q-8 -29 -12 -57t-4 -42q0 -26 4 -41.5t4 -29.5t-15.5 -21t-33.5 -12q-20 -5 -31.5 -6.5t-22.5 -1.5q-14 0 -20.5 6.5t-11.5 17.5q-3 8 -6 23.5t-3 44.5q0 20 4 50t13 65l69 284q11 47 17 92t6 70q0 45 -13 75t-34.5 48
t-50.5 25.5t-60 7.5q-51 0 -102.5 -21.5t-95.5 -60t-77 -91.5t-46 -116l-103 -485q-3 -14 -16 -24.5t-51 -10.5q-25 0 -37.5 2.5t-20.5 7.5q-8 8 -8 18q0 11 6 35l166 787q3 15 7.5 23.5t9.5 13.5q8 8 20.5 12.5t26.5 7.5q15 3 26 4.5t25 1.5q27 0 27 -18q0 -8 -5 -25
l-18 -88q19 23 50.5 47.5t71 45t85.5 33.5t94 13q73 0 123 -22t81 -57t44 -78t12 -86zM1040 1219q0 -5 -2.5 -15.5t-10.5 -27.5q-31 -72 -76 -110t-110 -38q-44 0 -73 14t-54 29q-23 14 -47 27.5t-53 13.5q-22 0 -42 -11t-40 -42q-13 -20 -19.5 -25.5t-21.5 -5.5h-43
q-25 0 -25 16q0 5 2 15.5t10 27.5q31 72 77.5 110t115.5 38q22 0 39.5 -4t31.5 -10.5t26 -14t24 -14.5q23 -14 47.5 -27.5t50.5 -13.5q23 0 43.5 11t40.5 42q12 20 19 25.5t22 5.5h43q25 0 25 -16z" />
    <glyph glyph-name="ograve" unicode="&#xf2;" horiz-adv-x="987" 
d="M868 549q0 54 -13.5 100t-41.5 80.5t-70 54t-100 19.5q-69 0 -125 -30t-98.5 -80.5t-71 -116t-41.5 -136.5q-5 -24 -6.5 -48.5t-1.5 -47.5q0 -54 13 -100t39.5 -80.5t67.5 -54t97 -19.5q71 0 128.5 30t100.5 80.5t71.5 116t41.5 136.5q5 24 7.5 48.5t2.5 47.5zM1001 553
q0 -26 -2 -55.5t-8 -61.5q-18 -101 -62 -184.5t-107 -144t-141.5 -94t-166.5 -33.5q-80 0 -144.5 23.5t-109.5 68.5t-69.5 112t-24.5 154q0 28 2 58.5t8 62.5q17 98 60.5 181.5t106.5 144t142.5 94.5t169.5 34q79 0 143 -24t109 -70t69.5 -113t24.5 -153zM861 1034
q0 -11 -10.5 -16.5t-42.5 -5.5q-25 0 -36 2.5t-19 7.5q-8 6 -15.5 14.5t-13.5 16.5l-139 200q-20 28 -28.5 42.5t-8.5 25.5q0 14 14.5 22.5t52.5 8.5q42 0 65.5 -7t37.5 -32l125 -234q8 -14 13 -25.5t5 -19.5z" />
    <glyph glyph-name="oacute" unicode="&#xf3;" horiz-adv-x="987" 
d="M868 549q0 54 -13.5 100t-41.5 80.5t-70 54t-100 19.5q-69 0 -125 -30t-98.5 -80.5t-71 -116t-41.5 -136.5q-5 -24 -6.5 -48.5t-1.5 -47.5q0 -54 13 -100t39.5 -80.5t67.5 -54t97 -19.5q71 0 128.5 30t100.5 80.5t71.5 116t41.5 136.5q5 24 7.5 48.5t2.5 47.5zM1001 553
q0 -26 -2 -55.5t-8 -61.5q-18 -101 -62 -184.5t-107 -144t-141.5 -94t-166.5 -33.5q-80 0 -144.5 23.5t-109.5 68.5t-69.5 112t-24.5 154q0 28 2 58.5t8 62.5q17 98 60.5 181.5t106.5 144t142.5 94.5t169.5 34q79 0 143 -24t109 -70t69.5 -113t24.5 -153zM940 1321
q0 -11 -8.5 -25.5t-28.5 -42.5l-139 -200q-6 -8 -13.5 -16.5t-15.5 -14.5q-8 -5 -19 -7.5t-36 -2.5q-32 0 -42.5 5.5t-10.5 16.5q0 8 5 19.5t13 25.5l125 234q14 25 37 32t65 7q39 0 53.5 -8.5t14.5 -22.5z" />
    <glyph glyph-name="ocircumflex" unicode="&#xf4;" horiz-adv-x="987" 
d="M868 549q0 54 -13.5 100t-41.5 80.5t-70 54t-100 19.5q-69 0 -125 -30t-98.5 -80.5t-71 -116t-41.5 -136.5q-5 -24 -6.5 -48.5t-1.5 -47.5q0 -54 13 -100t39.5 -80.5t67.5 -54t97 -19.5q71 0 128.5 30t100.5 80.5t71.5 116t41.5 136.5q5 24 7.5 48.5t2.5 47.5zM1001 553
q0 -26 -2 -55.5t-8 -61.5q-18 -101 -62 -184.5t-107 -144t-141.5 -94t-166.5 -33.5q-80 0 -144.5 23.5t-109.5 68.5t-69.5 112t-24.5 154q0 28 2 58.5t8 62.5q17 98 60.5 181.5t106.5 144t142.5 94.5t169.5 34q79 0 143 -24t109 -70t69.5 -113t24.5 -153zM1019 1034
q0 -12 -11 -17t-46 -5q-31 0 -49 4t-29 24l-102 177l-209 -179q-9 -8 -16 -13t-15.5 -8.5t-19 -5t-25.5 -1.5q-35 0 -49 6t-14 18q0 8 5 17.5t25 29.5l234 217q18 17 29 27.5t21 16.5t19.5 8t24.5 2q16 0 26.5 -1.5t18.5 -7t15.5 -16t17.5 -27.5l125 -215q14 -24 19 -33.5
t5 -17.5z" />
    <glyph glyph-name="otilde" unicode="&#xf5;" horiz-adv-x="987" 
d="M868 549q0 54 -13.5 100t-41.5 80.5t-70 54t-100 19.5q-69 0 -125 -30t-98.5 -80.5t-71 -116t-41.5 -136.5q-5 -24 -6.5 -48.5t-1.5 -47.5q0 -54 13 -100t39.5 -80.5t67.5 -54t97 -19.5q71 0 128.5 30t100.5 80.5t71.5 116t41.5 136.5q5 24 7.5 48.5t2.5 47.5zM1001 553
q0 -26 -2 -55.5t-8 -61.5q-18 -101 -62 -184.5t-107 -144t-141.5 -94t-166.5 -33.5q-80 0 -144.5 23.5t-109.5 68.5t-69.5 112t-24.5 154q0 28 2 58.5t8 62.5q17 98 60.5 181.5t106.5 144t142.5 94.5t169.5 34q79 0 143 -24t109 -70t69.5 -113t24.5 -153zM1053 1219
q0 -5 -2.5 -15.5t-10.5 -27.5q-31 -72 -76 -110t-110 -38q-44 0 -73 14t-54 29q-23 14 -47 27.5t-53 13.5q-22 0 -42 -11t-40 -42q-13 -20 -19.5 -25.5t-21.5 -5.5h-43q-25 0 -25 16q0 5 2 15.5t10 27.5q31 72 77.5 110t115.5 38q22 0 39.5 -4t31.5 -10.5t26 -14t24 -14.5
q23 -14 47.5 -27.5t50.5 -13.5q23 0 43.5 11t40.5 42q12 20 19 25.5t22 5.5h43q25 0 25 -16z" />
    <glyph glyph-name="odieresis" unicode="&#xf6;" horiz-adv-x="987" 
d="M868 549q0 54 -13.5 100t-41.5 80.5t-70 54t-100 19.5q-69 0 -125 -30t-98.5 -80.5t-71 -116t-41.5 -136.5q-5 -24 -6.5 -48.5t-1.5 -47.5q0 -54 13 -100t39.5 -80.5t67.5 -54t97 -19.5q71 0 128.5 30t100.5 80.5t71.5 116t41.5 136.5q5 24 7.5 48.5t2.5 47.5zM1001 553
q0 -26 -2 -55.5t-8 -61.5q-18 -101 -62 -184.5t-107 -144t-141.5 -94t-166.5 -33.5q-80 0 -144.5 23.5t-109.5 68.5t-69.5 112t-24.5 154q0 28 2 58.5t8 62.5q17 98 60.5 181.5t106.5 144t142.5 94.5t169.5 34q79 0 143 -24t109 -70t69.5 -113t24.5 -153zM700 1118
q0 -22 -7.5 -41.5t-21 -33.5t-31.5 -22.5t-39 -8.5q-19 0 -36.5 8.5t-30.5 22.5t-21 33.5t-8 41.5q0 47 27 78t69 31q20 0 38 -8.5t31.5 -23t21.5 -34.5t8 -43zM978 1118q0 -45 -28 -75.5t-70 -30.5q-19 0 -36.5 8.5t-31 22.5t-21.5 33.5t-8 41.5q0 47 27.5 78t69.5 31
q20 0 37.5 -8.5t31 -23t21.5 -34.5t8 -43z" />
    <glyph glyph-name="divide" unicode="&#xf7;" 
d="M717 301q0 -21 -9 -39.5t-23.5 -33t-34 -23t-40.5 -8.5q-20 0 -38.5 8.5t-32.5 23t-22.5 33t-8.5 39.5t8 41t22 35t32.5 24t39.5 9q20 0 39.5 -9t34.5 -24t24 -35t9 -41zM1030 633q0 -28 -3.5 -37t-8.5 -14t-12 -8t-21 -3h-743q-14 0 -21 3t-12 8t-8.5 14t-3.5 37t3.5 38
t8.5 15t12 7.5t21 2.5h743q14 0 21 -2.5t12 -7.5t8.5 -15t3.5 -38zM717 965q0 -22 -9 -41.5t-23.5 -34t-34 -23t-40.5 -8.5q-20 0 -38.5 8.5t-32.5 23t-22.5 34t-8.5 41.5q0 21 8 40t22 33.5t32.5 23.5t39.5 9q20 0 39.5 -9t34.5 -23.5t24 -33.5t9 -40z" />
    <glyph glyph-name="oslash" unicode="&#xf8;" horiz-adv-x="987" 
d="M868 549q0 64 -18 117l-494 -510q28 -31 67 -48.5t93 -17.5q71 0 128.5 30t100.5 80.5t71.5 116t41.5 136.5q5 24 7.5 48.5t2.5 47.5zM799 745q-28 28 -66.5 43t-89.5 15q-69 0 -125 -30t-98.5 -80.5t-71 -116t-41.5 -136.5q-5 -24 -6.5 -48.5t-1.5 -47.5q0 -28 3 -53.5
t11 -48.5zM1051 891q0 -8 -2.5 -15.5t-16.5 -21.5l-84 -88q53 -83 53 -213q0 -26 -2 -55.5t-8 -61.5q-18 -101 -62 -184.5t-107 -144t-141.5 -94t-166.5 -33.5q-155 0 -246 83l-41 -40q-6 -6 -11 -10.5t-11.5 -7.5t-16 -4t-24.5 -1q-28 0 -37.5 6.5t-9.5 16.5q0 8 3 14.5
t17 21.5l74 78q-22 40 -33.5 90.5t-11.5 110.5q0 28 2 58.5t8 62.5q17 98 60.5 181.5t106.5 144t142.5 94.5t169.5 34q142 0 234 -75l51 53q10 12 22 17t44 5q27 0 36 -6.5t9 -15.5z" />
    <glyph glyph-name="ugrave" unicode="&#xf9;" horiz-adv-x="1006" 
d="M809 1034q0 -11 -10.5 -16.5t-42.5 -5.5q-25 0 -36.5 2.5t-19.5 7.5q-8 6 -15 14.5t-13 16.5l-140 200q-20 28 -28 42.5t-8 25.5q0 14 14.5 22.5t52.5 8.5q42 0 65.5 -7t37.5 -32l125 -234q8 -14 13 -25.5t5 -19.5zM1042 872q0 -10 -6 -34l-135 -635q-6 -29 -10 -57
t-4 -42q0 -26 4 -41.5t4 -29.5t-15.5 -21t-33.5 -12q-20 -5 -31 -6.5t-22 -1.5q-14 0 -20 7.5t-11 18.5q-3 8 -7.5 29t-4.5 43v37q-18 -23 -46.5 -47t-66 -43.5t-84 -32t-100.5 -12.5q-73 0 -123.5 22t-81 57t-43.5 78.5t-12 86.5q0 48 9 101t23 118l88 411q3 14 16.5 24.5
t51.5 10.5q25 0 37 -2.5t20 -7.5q8 -8 8 -19q0 -10 -6 -34l-88 -416q-9 -47 -15.5 -92t-6.5 -70q0 -45 12.5 -75t34.5 -48t50 -25.5t60 -7.5q51 0 103 21.5t96 60t77 91.5t46 116l100 473q3 14 16.5 24.5t51.5 10.5q25 0 37 -2.5t20 -7.5q8 -8 8 -19z" />
    <glyph glyph-name="uacute" unicode="&#xfa;" horiz-adv-x="1006" 
d="M952 1321q0 -11 -8.5 -25.5t-28.5 -42.5l-139 -200q-6 -8 -13 -16.5t-15 -14.5q-8 -5 -19.5 -7.5t-36.5 -2.5q-32 0 -42.5 5.5t-10.5 16.5q0 8 5 19.5t13 25.5l125 234q14 25 37.5 32t65.5 7q38 0 52.5 -8.5t14.5 -22.5zM1042 872q0 -10 -6 -34l-135 -635q-6 -29 -10 -57
t-4 -42q0 -26 4 -41.5t4 -29.5t-15.5 -21t-33.5 -12q-20 -5 -31 -6.5t-22 -1.5q-14 0 -20 7.5t-11 18.5q-3 8 -7.5 29t-4.5 43v37q-18 -23 -46.5 -47t-66 -43.5t-84 -32t-100.5 -12.5q-73 0 -123.5 22t-81 57t-43.5 78.5t-12 86.5q0 48 9 101t23 118l88 411q3 14 16.5 24.5
t51.5 10.5q25 0 37 -2.5t20 -7.5q8 -8 8 -19q0 -10 -6 -34l-88 -416q-9 -47 -15.5 -92t-6.5 -70q0 -45 12.5 -75t34.5 -48t50 -25.5t60 -7.5q51 0 103 21.5t96 60t77 91.5t46 116l100 473q3 14 16.5 24.5t51.5 10.5q25 0 37 -2.5t20 -7.5q8 -8 8 -19z" />
    <glyph glyph-name="ucircumflex" unicode="&#xfb;" horiz-adv-x="1006" 
d="M993 1034q0 -12 -11 -17t-46 -5q-31 0 -49 4t-29 24l-102 177l-209 -179q-9 -8 -16 -13t-15.5 -8.5t-19 -5t-25.5 -1.5q-35 0 -49 6t-14 18q0 8 5 17.5t25 29.5l234 217q18 17 29 27.5t21 16.5t19.5 8t24.5 2q16 0 26.5 -1.5t18.5 -7t15.5 -16t17.5 -27.5l125 -215
q14 -24 19 -33.5t5 -17.5zM1042 872q0 -10 -6 -34l-135 -635q-6 -29 -10 -57t-4 -42q0 -26 4 -41.5t4 -29.5t-15.5 -21t-33.5 -12q-20 -5 -31 -6.5t-22 -1.5q-14 0 -20 7.5t-11 18.5q-3 8 -7.5 29t-4.5 43v37q-18 -23 -46.5 -47t-66 -43.5t-84 -32t-100.5 -12.5
q-73 0 -123.5 22t-81 57t-43.5 78.5t-12 86.5q0 48 9 101t23 118l88 411q3 14 16.5 24.5t51.5 10.5q25 0 37 -2.5t20 -7.5q8 -8 8 -19q0 -10 -6 -34l-88 -416q-9 -47 -15.5 -92t-6.5 -70q0 -45 12.5 -75t34.5 -48t50 -25.5t60 -7.5q51 0 103 21.5t96 60t77 91.5t46 116
l100 473q3 14 16.5 24.5t51.5 10.5q25 0 37 -2.5t20 -7.5q8 -8 8 -19z" />
    <glyph glyph-name="udieresis" unicode="&#xfc;" horiz-adv-x="1006" 
d="M680 1118q0 -45 -28 -75.5t-70 -30.5q-20 0 -37.5 8.5t-30.5 22.5t-21 33.5t-8 41.5q0 47 27.5 78t69.5 31q20 0 37.5 -8.5t31 -23t21.5 -34.5t8 -43zM958 1118q0 -45 -28 -75.5t-70 -30.5q-19 0 -36.5 8.5t-30.5 22.5t-21 33.5t-8 41.5q0 47 27 78t69 31q20 0 37.5 -8.5
t31 -23t21.5 -34.5t8 -43zM1042 872q0 -10 -6 -34l-135 -635q-6 -29 -10 -57t-4 -42q0 -26 4 -41.5t4 -29.5t-15.5 -21t-33.5 -12q-20 -5 -31 -6.5t-22 -1.5q-14 0 -20 7.5t-11 18.5q-3 8 -7.5 29t-4.5 43v37q-18 -23 -46.5 -47t-66 -43.5t-84 -32t-100.5 -12.5
q-73 0 -123.5 22t-81 57t-43.5 78.5t-12 86.5q0 48 9 101t23 118l88 411q3 14 16.5 24.5t51.5 10.5q25 0 37 -2.5t20 -7.5q8 -8 8 -19q0 -10 -6 -34l-88 -416q-9 -47 -15.5 -92t-6.5 -70q0 -45 12.5 -75t34.5 -48t50 -25.5t60 -7.5q51 0 103 21.5t96 60t77 91.5t46 116
l100 473q3 14 16.5 24.5t51.5 10.5q25 0 37 -2.5t20 -7.5q8 -8 8 -19z" />
    <glyph glyph-name="yacute" unicode="&#xfd;" horiz-adv-x="985" 
d="M1028 872q0 -10 -6 -34l-170 -803q-18 -84 -36 -140.5t-38 -94.5t-42.5 -62t-47.5 -45q-28 -24 -59.5 -43t-71.5 -31.5t-89.5 -19.5t-113.5 -7q-39 0 -75.5 5.5t-67 13t-52.5 15.5t-32 14q-17 9 -25 16t-8 18q0 8 3 19.5t14 30.5q11 18 19.5 25t21.5 7q9 0 26.5 -7
t34.5 -13q7 -3 23 -8.5t38 -11t49.5 -9.5t59.5 -4q58 0 110 16.5t94 49.5t71.5 82t43.5 114l31 141q-15 -18 -42 -39.5t-64.5 -41t-85.5 -32.5t-105 -13q-73 0 -122.5 22t-80 57t-44 78t-13.5 86q0 48 9.5 101t23.5 118l90 424q3 14 16 24.5t52 10.5q24 0 36.5 -2.5
t20.5 -7.5q8 -8 8 -19q0 -10 -6 -34l-90 -428q-13 -56 -18 -98t-5 -76q0 -40 13 -67.5t34.5 -44.5t50 -24.5t60.5 -7.5q51 0 102.5 21.5t96 60t77.5 91.5t46 116l102 485q3 14 16 24.5t52 10.5q24 0 36.5 -2.5t20.5 -7.5q8 -8 8 -19zM950 1321q0 -11 -8.5 -25.5t-28.5 -42.5
l-139 -200q-6 -8 -13.5 -16.5t-15.5 -14.5q-8 -5 -19 -7.5t-36 -2.5q-32 0 -42.5 5.5t-10.5 16.5q0 8 5 19.5t13 25.5l125 234q14 25 37 32t65 7q39 0 53.5 -8.5t14.5 -22.5z" />
    <glyph glyph-name="thorn" unicode="&#xfe;" horiz-adv-x="995" 
d="M877 559q0 41 -9 83.5t-32 77.5t-62 57t-98 22q-79 0 -135 -40.5t-95.5 -107.5t-65.5 -153.5t-46 -178.5l-37 -167q31 -25 82 -44.5t123 -19.5q60 0 109 17.5t88.5 49t71 76.5t56.5 101q23 51 36.5 111t13.5 116zM1014 592q0 -49 -4.5 -91.5t-14.5 -82t-24.5 -77.5
t-34.5 -79q-26 -53 -70 -103.5t-101 -90.5t-124.5 -64t-140.5 -24q-60 0 -117.5 15.5t-108.5 47.5l-84 -395q-3 -14 -16 -24.5t-51 -10.5q-25 0 -37 2.5t-20 7.5q-9 8 -9 19q0 10 6 34l349 1641q3 15 7 23.5t9 13.5q8 8 20.5 12.5t26.5 7.5q16 3 26.5 4.5t24.5 1.5
q27 0 27 -18q0 -5 -1 -11t-3 -14l-117 -555q18 22 45 45t63 42t80.5 31.5t96.5 12.5q73 0 128.5 -27t93 -71.5t56.5 -102.5t19 -120z" />
    <glyph glyph-name="ydieresis" unicode="&#xff;" horiz-adv-x="985" 
d="M1028 872q0 -10 -6 -34l-170 -803q-18 -84 -36 -140.5t-38 -94.5t-42.5 -62t-47.5 -45q-28 -24 -59.5 -43t-71.5 -31.5t-89.5 -19.5t-113.5 -7q-39 0 -75.5 5.5t-67 13t-52.5 15.5t-32 14q-17 9 -25 16t-8 18q0 8 3 19.5t14 30.5q11 18 19.5 25t21.5 7q9 0 26.5 -7
t34.5 -13q7 -3 23 -8.5t38 -11t49.5 -9.5t59.5 -4q58 0 110 16.5t94 49.5t71.5 82t43.5 114l31 141q-15 -18 -42 -39.5t-64.5 -41t-85.5 -32.5t-105 -13q-73 0 -122.5 22t-80 57t-44 78t-13.5 86q0 48 9.5 101t23.5 118l90 424q3 14 16 24.5t52 10.5q24 0 36.5 -2.5
t20.5 -7.5q8 -8 8 -19q0 -10 -6 -34l-90 -428q-13 -56 -18 -98t-5 -76q0 -40 13 -67.5t34.5 -44.5t50 -24.5t60.5 -7.5q51 0 102.5 21.5t96 60t77.5 91.5t46 116l102 485q3 14 16 24.5t52 10.5q24 0 36.5 -2.5t20.5 -7.5q8 -8 8 -19zM665 1118q0 -22 -7.5 -41.5t-21 -33.5
t-31.5 -22.5t-39 -8.5q-19 0 -36.5 8.5t-30.5 22.5t-21 33.5t-8 41.5q0 47 27 78t69 31q20 0 38 -8.5t31.5 -23t21.5 -34.5t8 -43zM943 1118q0 -45 -28 -75.5t-70 -30.5q-19 0 -36.5 8.5t-31 22.5t-21.5 33.5t-8 41.5q0 47 27.5 78t69.5 31q20 0 37.5 -8.5t31 -23
t21.5 -34.5t8 -43z" />
    <glyph glyph-name="minus" unicode="&#x2212;" 
d="M1030 633q0 -28 -3.5 -37t-8.5 -14t-12 -8t-21 -3h-743q-14 0 -21 3t-12 8t-8.5 14t-3.5 37t3.5 38t8.5 15t12 7.5t21 2.5h743q14 0 21 -2.5t12 -7.5t8.5 -15t3.5 -38z" />
    <glyph glyph-name="lslash" unicode="&#x142;" horiz-adv-x="403" 
d="M573 842q0 -5 -1 -13t-3 -16l-8 -39q-3 -17 -10.5 -33t-30.5 -30l-119 -70l-94 -438q-6 -29 -10 -57t-4 -42q0 -26 4 -41.5t4 -29.5t-15.5 -21t-33.5 -12q-20 -5 -31 -6.5t-22 -1.5q-14 0 -21 6.5t-12 17.5q-3 8 -5.5 23.5t-2.5 44.5q0 20 4 50t12 65l76 354l-84 -49
q-9 -5 -16.5 -8.5t-18.5 -3.5t-15.5 5t-4.5 13q0 5 1 13t3 16l8 39q3 17 10.5 33t30.5 30l119 70l129 606q3 15 7 23.5t9 13.5q8 8 20.5 12.5t26.5 7.5q16 3 26.5 4.5t24.5 1.5q27 0 27 -18q0 -5 -1 -11t-3 -14l-115 -538l84 49q9 5 16.5 8.5t18.5 3.5t15.5 -5t4.5 -13z" />
    <glyph glyph-name="notequal" unicode="&#x2260;" 
d="M1032 473q0 -28 -3.5 -37t-8.5 -14t-12 -7.5t-21 -2.5h-477l-193 -230q-11 -12 -18.5 -16t-13.5 -4q-8 0 -19.5 4t-29.5 16q-14 9 -21.5 16t-11 12t-4 8.5t-0.5 6.5q0 8 2.5 14t11.5 17l131 156h-100q-14 0 -21 2.5t-12 7.5t-8.5 14t-3.5 37t3.5 38t8.5 15t12 8t21 3h205
l167 198h-372q-14 0 -21 2.5t-12 7.5t-8.5 14.5t-3.5 37.5t3.5 38t8.5 15t12 7.5t21 2.5h477l192 230q11 12 19 16t14 4q8 0 19.5 -4t29.5 -16q14 -9 21.5 -16t11 -12t4 -8.5t0.5 -6.5q0 -8 -2.5 -14t-11.5 -17l-131 -156h100q14 0 21 -2.5t12 -7.5t8.5 -15t3.5 -38
t-3.5 -37.5t-8.5 -14.5t-12 -7.5t-21 -2.5h-205l-168 -198h373q14 0 21 -3t12 -8t8.5 -15t3.5 -38z" />
    <glyph glyph-name="lessequal" unicode="&#x2264;" 
d="M1018 61q0 -27 -3.5 -36.5t-8.5 -14.5t-12 -7.5t-21 -2.5h-744q-14 0 -20.5 2.5t-11.5 7.5t-9 14.5t-4 36.5q0 28 4 38.5t9 15.5t11.5 7.5t20.5 2.5h744q14 0 21 -2.5t12 -7.5t8.5 -15.5t3.5 -38.5zM1018 367q0 -42 -8.5 -53t-22.5 -11q-9 0 -15.5 1t-23.5 9l-723 303
q-26 11 -33.5 31t-7.5 55q0 38 7.5 58t33.5 31l723 307q17 8 23.5 9t15.5 1q14 0 22.5 -11t8.5 -53q0 -19 -1.5 -31t-5 -20t-10.5 -13t-18 -9l-639 -269l639 -262q11 -5 18 -9.5t10.5 -12.5t5 -20t1.5 -31z" />
    <glyph glyph-name="greaterequal" unicode="&#x2265;" 
d="M1034 61q0 -27 -3.5 -36.5t-8.5 -14.5t-12 -7.5t-21 -2.5h-743q-14 0 -21 2.5t-12 7.5t-8.5 14.5t-3.5 36.5q0 28 3.5 38.5t8.5 15.5t12 7.5t21 2.5h743q14 0 21 -2.5t12 -7.5t8.5 -15.5t3.5 -38.5zM1034 702q0 -35 -7.5 -55t-33.5 -31l-723 -303q-17 -8 -23 -9t-16 -1
q-14 0 -22 11t-8 53q0 19 1.5 31t5 20t10.5 12.5t18 9.5l638 262l-638 269q-11 4 -18 9t-10.5 13t-5 20t-1.5 31q0 42 8 53t22 11q10 0 16 -1t23 -9l723 -307q26 -11 33.5 -31t7.5 -58z" />
    <glyph glyph-name="fraction" unicode="&#x2215;" horiz-adv-x="61" 
d="M707 1380q0 -8 -7 -18t-16 -23l-948 -1331q-14 -18 -31 -23t-51 -5q-32 0 -46 5.5t-14 14.5q0 8 7 18.5t16 22.5l948 1331q14 19 31 24t51 5q32 0 46 -5.5t14 -15.5z" />
    <glyph glyph-name="fi" unicode="&#xfb01;" horiz-adv-x="1020" 
d="M1065 864q0 -9 -2 -19l-4 -20l-133 -622q-6 -29 -10.5 -57t-4.5 -42q0 -26 4.5 -41.5t4.5 -29.5t-15.5 -21t-34.5 -12q-20 -5 -31 -6.5t-22 -1.5q-14 0 -21 6.5t-12 17.5q-3 8 -5.5 23.5t-2.5 44.5q0 42 17 115l122 579h-419l-201 -944q-3 -14 -16 -24.5t-52 -10.5
q-24 0 -36.5 3t-20.5 8q-8 8 -8 18q0 9 6 35l194 915h-122q-33 0 -33 17q0 9 4 22t10 29q8 20 19.5 33.5t40.5 13.5h106l37 174q15 68 43.5 125.5t74 99t109 65t146.5 23.5q66 0 120.5 -15.5t88.5 -31.5q28 -14 34.5 -23.5t6.5 -19.5q0 -8 -6 -23t-15 -30q-11 -19 -22.5 -25
t-20.5 -6q-11 0 -24.5 6t-34.5 17q-20 9 -57.5 23t-88.5 14q-57 0 -96.5 -22t-66.5 -57t-43 -79t-25 -88l-27 -127h506q25 0 32 -8t7 -21z" />
    <glyph glyph-name="fl" unicode="&#xfb02;" horiz-adv-x="1042" 
d="M1161 1231q0 -9 -2.5 -27t-7.5 -41l-205 -960q-6 -29 -10 -57t-4 -42q0 -26 4 -41.5t4 -29.5t-15.5 -21t-33.5 -12q-20 -5 -31 -6.5t-22 -1.5q-14 0 -21 6.5t-12 17.5q-3 8 -5.5 23.5t-2.5 44.5q0 20 4 50t12 65l193 915q3 14 6.5 30.5t1.5 33.5q0 15 -13 29.5t-34 25.5
q-25 12 -65.5 24.5t-100.5 12.5q-65 0 -109 -20.5t-73 -55t-45.5 -80t-26.5 -94.5l-27 -127h240q33 0 33 -16q0 -10 -4.5 -23t-10.5 -29q-8 -20 -19 -33.5t-40 -13.5h-223l-201 -944q-3 -14 -16 -24.5t-52 -10.5q-24 0 -36.5 3t-20.5 8q-8 8 -8 18q0 9 6 35l194 915h-122
q-33 0 -33 17q0 9 4 22t10 29q8 20 19.5 33.5t40.5 13.5h106l33 158l2 14q10 70 40 128t79 99.5t116.5 64.5t153.5 23q68 0 122.5 -11t95 -26.5t67.5 -33t41 -29.5q17 -19 20.5 -28.5t3.5 -20.5z" />
    <glyph glyph-name="dotlessi" unicode="&#x131;" horiz-adv-x="408" 
d="M453 887q0 -5 -1 -11t-3 -14l-142 -659q-6 -29 -10 -57t-4 -42q0 -26 4 -41.5t4 -29.5t-15.5 -21t-33.5 -12q-20 -5 -31 -6.5t-22 -1.5q-14 0 -21 6.5t-12 17.5q-3 8 -5.5 23.5t-2.5 44.5q0 20 4 50t12 65l137 643q3 15 7.5 23.5t9.5 13.5q8 8 20.5 12.5t26.5 7.5
q15 3 26 4.5t25 1.5q27 0 27 -18z" />
    <glyph glyph-name="breve" unicode="&#x2d8;" horiz-adv-x="1024" 
d="M1018 1264q0 -17 -7.5 -42.5t-23 -53.5t-39 -55.5t-55 -50t-71 -36.5t-87.5 -14q-68 0 -108.5 20t-62.5 49.5t-29 62.5t-7 60q0 14 0.5 28.5t3.5 27.5q4 17 15.5 23.5t40.5 6.5q34 0 42.5 -7t8.5 -26q1 -25 5 -48t15.5 -40.5t32 -28t53.5 -10.5t58.5 11t44.5 29
t32.5 40.5t22.5 44.5q7 20 19 27.5t47 7.5q28 0 38.5 -7t10.5 -19z" />
    <glyph glyph-name="dotaccent" unicode="&#x2d9;" horiz-adv-x="1024" 
d="M834 1118q0 -22 -7.5 -41.5t-21 -33.5t-31.5 -22.5t-39 -8.5q-19 0 -36.5 8.5t-30.5 22.5t-21 33.5t-8 41.5q0 47 27 78t69 31q20 0 38 -8.5t31.5 -23t21.5 -34.5t8 -43z" />
    <glyph glyph-name="ring" unicode="&#x2da;" horiz-adv-x="1024" 
d="M858 1200q0 19 -8 37t-21.5 31.5t-31.5 21.5t-37 8t-37 -8t-31.5 -21.5t-21.5 -31.5t-8 -37t8 -37t21.5 -31.5t31.5 -21.5t37 -8t37 8t31.5 21.5t21.5 31.5t8 37zM948 1200q0 -39 -15 -73.5t-40.5 -60t-59.5 -40t-73 -14.5t-73.5 14.5t-60 40t-40.5 60t-15 73.5t15 73.5
t40.5 60t60 40.5t73.5 15t73 -15t59.5 -40.5t40.5 -60t15 -73.5z" />
    <glyph glyph-name="hungarumlaut" unicode="&#x2dd;" horiz-adv-x="1024" 
d="M760 1323q0 -11 -7.5 -25.5t-27.5 -42.5l-135 -188q-14 -19 -23.5 -29.5t-17.5 -15.5t-17.5 -7.5t-33.5 -2.5q-31 0 -40 5.5t-9 16.5q0 8 5 18.5t13 24.5l133 238q14 25 36 31t60 6q37 0 50.5 -7.5t13.5 -21.5zM1036 1323q0 -11 -7.5 -25.5t-27.5 -42.5l-135 -188
q-27 -37 -41 -45q-8 -5 -17 -7.5t-34 -2.5q-31 0 -40 5.5t-9 16.5q0 8 5 18.5t13 24.5l134 238q14 25 36 31t60 6q37 0 50 -7.5t13 -21.5z" />
    <glyph glyph-name="ogonek" unicode="&#x2db;" horiz-adv-x="1024" 
d="M700 -342q0 -8 -4 -13.5t-18 -13.5q-16 -9 -55.5 -23t-92.5 -14q-47 0 -83 13t-60.5 37t-37.5 57.5t-13 73.5q0 53 19.5 94.5t49.5 72.5t66.5 50.5t71.5 27.5h90q-34 -18 -65 -41t-55 -51t-38 -60.5t-14 -68.5q0 -48 26.5 -77t69.5 -29q23 0 39 4.5t27 9.5q14 6 19.5 8
t14.5 2q10 0 16.5 -7t14.5 -19q8 -14 10 -20.5t2 -12.5z" />
    <glyph glyph-name="caron" unicode="&#x2c7;" horiz-adv-x="1024" 
d="M1073 1327q0 -8 -5.5 -17.5t-25.5 -29.5l-233 -217q-18 -17 -29 -27.5t-21 -16t-19.5 -7.5t-24.5 -2q-16 0 -26.5 1.5t-18.5 7t-15.5 15.5t-17.5 27l-125 215q-14 25 -19.5 34t-5.5 17q0 12 11.5 17.5t46.5 5.5q31 0 49 -4.5t29 -24.5l102 -176l209 178q8 7 15.5 12.5
t15.5 9.5t19 5.5t26 1.5q35 0 49 -6.5t14 -18.5z" />
    <glyph glyph-name="ascendercaron" horiz-adv-x="266" 
d="M522 1352q0 -13 -7.5 -27t-16.5 -31l-142 -262q-6 -12 -12.5 -19t-15.5 -10.5t-22 -4.5t-32 -1q-26 0 -33.5 6.5t-7.5 14.5t4.5 19t12.5 30l117 270q11 25 29.5 34t62.5 9q21 0 33 -2.5t19 -6.5t9 -9t2 -10z" />
    <glyph glyph-name="zdot" unicode="&#x17c;" horiz-adv-x="774" 
d="M903 868q0 -5 -1 -14.5t-3 -22.5q-5 -24 -11 -34t-16 -21l-634 -661h491q33 0 33 -17q0 -9 -4 -22t-10 -29q-8 -20 -19.5 -33.5t-40.5 -13.5h-608q-14 0 -22 1t-13 7q-4 4 -4 19v12t2 18q3 12 6.5 20.5t8 15.5t11 14t15.5 16l629 655h-455q-33 0 -33 17q0 9 4 22t11 29
q8 20 19 33.5t40 13.5h565q14 0 22 -1t13 -7q4 -4 4 -17zM741 1118q0 -22 -7.5 -41.5t-21 -33.5t-31.5 -22.5t-39 -8.5q-19 0 -36.5 8.5t-30.5 22.5t-21 33.5t-8 41.5q0 47 27 78t69 31q20 0 38 -8.5t31.5 -23t21.5 -34.5t8 -43z" />
    <glyph glyph-name="Zdot" unicode="&#x17b;" horiz-adv-x="961" 
d="M1200 1339q0 -6 -0.5 -15t-5.5 -28q-5 -17 -12 -31.5t-21 -31.5l-928 -1102h701q17 0 22 -6t5 -14q0 -6 -2.5 -17t-6.5 -22t-7.5 -20t-4.5 -13q-9 -22 -20.5 -30.5t-32.5 -8.5h-811q-14 0 -22 2.5t-11 5.5q-5 5 -6.5 12t-1.5 13t0.5 15t5.5 28q5 17 12 31.5t21 31.5
l925 1102h-669q-17 0 -22 6.5t-5 14.5q0 6 2.5 16.5t6 21.5t7 20t5.5 13q9 22 20 30.5t33 8.5h782q14 0 22 -2.5t11 -5.5q5 -5 6.5 -11.5t1.5 -13.5zM914 1569q0 -22 -7.5 -41.5t-21 -33.5t-31.5 -22.5t-39 -8.5q-19 0 -36.5 8.5t-30.5 22.5t-21 33.5t-8 41.5q0 47 27 78
t69 31q20 0 38 -8.5t31.5 -23t21.5 -34.5t8 -43z" />
    <glyph glyph-name="zacute" unicode="&#x17a;" horiz-adv-x="774" 
d="M903 868q0 -5 -1 -14.5t-3 -22.5q-5 -24 -11 -34t-16 -21l-634 -661h491q33 0 33 -17q0 -9 -4 -22t-10 -29q-8 -20 -19.5 -33.5t-40.5 -13.5h-608q-14 0 -22 1t-13 7q-4 4 -4 19v12t2 18q3 12 6.5 20.5t8 15.5t11 14t15.5 16l629 655h-455q-33 0 -33 17q0 9 4 22t11 29
q8 20 19 33.5t40 13.5h565q14 0 22 -1t13 -7q4 -4 4 -17zM873 1321q0 -11 -8.5 -25.5t-28.5 -42.5l-139 -200q-6 -8 -13.5 -16.5t-15.5 -14.5q-8 -5 -19 -7.5t-36 -2.5q-32 0 -42.5 5.5t-10.5 16.5q0 8 5 19.5t13 25.5l125 234q14 25 37 32t65 7q39 0 53.5 -8.5t14.5 -22.5z
" />
    <glyph glyph-name="Zacute" unicode="&#x179;" horiz-adv-x="961" 
d="M1200 1339q0 -6 -0.5 -15t-5.5 -28q-5 -17 -12 -31.5t-21 -31.5l-928 -1102h701q17 0 22 -6t5 -14q0 -6 -2.5 -17t-6.5 -22t-7.5 -20t-4.5 -13q-9 -22 -20.5 -30.5t-32.5 -8.5h-811q-14 0 -22 2.5t-11 5.5q-5 5 -6.5 12t-1.5 13t0.5 15t5.5 28q5 17 12 31.5t21 31.5
l925 1102h-669q-17 0 -22 6.5t-5 14.5q0 6 2.5 16.5t6 21.5t7 20t5.5 13q9 22 20 30.5t33 8.5h782q14 0 22 -2.5t11 -5.5q5 -5 6.5 -11.5t1.5 -13.5zM1059 1772q0 -11 -8.5 -25.5t-28.5 -42.5l-139 -200q-6 -8 -13.5 -16.5t-15.5 -14.5q-8 -5 -19 -7.5t-36 -2.5
q-32 0 -42.5 5.5t-10.5 16.5q0 8 5 19.5t13 25.5l125 234q14 25 37 32t65 7q39 0 53.5 -8.5t14.5 -22.5z" />
    <glyph glyph-name="uogonek" unicode="&#x173;" horiz-adv-x="1006" 
d="M1042 872q0 -10 -6 -34l-135 -635q-6 -29 -10 -57t-4 -42q0 -26 4 -41.5t4 -29.5t-15.5 -21t-33.5 -12q-23 -6 -33 -6q-54 -35 -90.5 -85t-36.5 -110q0 -48 26.5 -77t69.5 -29q23 0 39 4.5t27 9.5q14 6 19.5 8t15.5 2q9 0 15.5 -7t14.5 -19q8 -14 10.5 -20.5t2.5 -12.5
q0 -8 -4.5 -13.5t-18.5 -13.5q-8 -5 -22 -11t-33 -12t-42.5 -10t-49.5 -4q-47 0 -83.5 13t-61 37t-37.5 57.5t-13 73.5q0 51 18.5 92t47.5 71.5t64.5 50.5t70.5 29q-3 8 -7.5 29t-4.5 43v37q-18 -23 -46.5 -47t-66 -43.5t-84 -32t-100.5 -12.5q-73 0 -123.5 22t-81 57
t-43.5 78.5t-12 86.5q0 48 9 101t23 118l88 411q3 14 16.5 24.5t51.5 10.5q25 0 37 -2.5t20 -7.5q8 -8 8 -19q0 -10 -6 -34l-88 -416q-9 -47 -15.5 -92t-6.5 -70q0 -45 12.5 -75t34.5 -48t50 -25.5t60 -7.5q51 0 103 21.5t96 60t77 91.5t46 116l100 473q3 14 16.5 24.5
t51.5 10.5q25 0 37 -2.5t20 -7.5q8 -8 8 -19z" />
    <glyph glyph-name="Uogonek" unicode="&#x172;" horiz-adv-x="1288" 
d="M1423 1350q0 -11 -6 -35l-192 -905q-21 -97 -58.5 -176.5t-99.5 -137.5t-152 -90.5t-215 -34.5q-42 -34 -69 -77.5t-27 -94.5q0 -48 26.5 -77t69.5 -29q23 0 39 4.5t27 9.5q14 6 19.5 8t15.5 2q9 0 15.5 -7t14.5 -19q8 -14 10.5 -20.5t2.5 -12.5q0 -8 -4.5 -13.5
t-18.5 -13.5q-8 -5 -22 -11t-33 -12t-42.5 -10t-49.5 -4q-47 0 -83.5 13t-61 37t-37.5 57.5t-13 73.5q0 69 32 119t77 81q-92 10 -157.5 39.5t-107.5 75.5t-61.5 106t-19.5 132q0 32 3 66t11 69l188 883q4 15 18.5 24.5t55.5 9.5q26 0 40 -2.5t22 -7.5q10 -8 10 -20
q0 -11 -6 -35l-185 -862q-6 -31 -8 -60t-2 -55q0 -56 15.5 -101t49.5 -76.5t88 -48t130 -16.5q87 0 154.5 18t118 57t84.5 100.5t52 148.5l197 926q3 15 17.5 24.5t56.5 9.5q26 0 39.5 -2.5t21.5 -7.5q10 -8 10 -20z" />
    <glyph glyph-name="udblacute" unicode="&#x171;" horiz-adv-x="1006" 
d="M846 1323q0 -11 -7.5 -25.5t-27.5 -42.5l-135 -188q-14 -19 -23.5 -29.5t-17.5 -15.5t-17.5 -7.5t-33.5 -2.5q-31 0 -40 5.5t-9 16.5q0 8 5 18.5t13 24.5l133 238q14 25 36 31t60 6q37 0 50.5 -7.5t13.5 -21.5zM1122 1323q0 -11 -7.5 -25.5t-27.5 -42.5l-135 -188
q-27 -37 -41 -45q-8 -5 -17 -7.5t-34 -2.5q-31 0 -40 5.5t-9 16.5q0 8 5 18.5t13 24.5l134 238q14 25 36 31t60 6q37 0 50 -7.5t13 -21.5zM1042 872q0 -10 -6 -34l-135 -635q-6 -29 -10 -57t-4 -42q0 -26 4 -41.5t4 -29.5t-15.5 -21t-33.5 -12q-20 -5 -31 -6.5t-22 -1.5
q-14 0 -20 7.5t-11 18.5q-3 8 -7.5 29t-4.5 43v37q-18 -23 -46.5 -47t-66 -43.5t-84 -32t-100.5 -12.5q-73 0 -123.5 22t-81 57t-43.5 78.5t-12 86.5q0 48 9 101t23 118l88 411q3 14 16.5 24.5t51.5 10.5q25 0 37 -2.5t20 -7.5q8 -8 8 -19q0 -10 -6 -34l-88 -416
q-9 -47 -15.5 -92t-6.5 -70q0 -45 12.5 -75t34.5 -48t50 -25.5t60 -7.5q51 0 103 21.5t96 60t77 91.5t46 116l100 473q3 14 16.5 24.5t51.5 10.5q25 0 37 -2.5t20 -7.5q8 -8 8 -19z" />
    <glyph glyph-name="Udblacute" unicode="&#x170;" horiz-adv-x="1288" 
d="M1423 1350q0 -11 -6 -35l-192 -905q-21 -99 -59.5 -179.5t-102.5 -138.5t-157.5 -89.5t-223.5 -31.5q-117 0 -200 26t-136.5 73t-78.5 112.5t-25 145.5q0 32 3 66t11 69l188 883q4 15 18.5 24.5t55.5 9.5q26 0 40 -2.5t22 -7.5q10 -8 10 -20q0 -11 -6 -35l-185 -862
q-6 -31 -8 -60t-2 -55q0 -56 15.5 -101t49.5 -76.5t88 -48t130 -16.5q87 0 154.5 18t118 57t84.5 100.5t52 148.5l197 926q3 15 17.5 24.5t56.5 9.5q26 0 39.5 -2.5t21.5 -7.5q10 -8 10 -20zM1090 1774q0 -11 -7.5 -25.5t-27.5 -42.5l-135 -188q-14 -19 -23.5 -29.5
t-17.5 -15.5t-17.5 -7.5t-33.5 -2.5q-31 0 -40 5.5t-9 16.5q0 8 5 18.5t13 24.5l133 238q14 25 36 31t60 6q37 0 50.5 -7.5t13.5 -21.5zM1366 1774q0 -11 -7.5 -25.5t-27.5 -42.5l-135 -188q-27 -37 -41 -45q-8 -5 -17 -7.5t-34 -2.5q-31 0 -40 5.5t-9 16.5q0 8 5 18.5
t13 24.5l134 238q14 25 36 31t60 6q37 0 50 -7.5t13 -21.5z" />
    <glyph glyph-name="uring" unicode="&#x16f;" horiz-adv-x="1006" 
d="M815 1200q0 19 -8 37t-21.5 31.5t-31.5 21.5t-37 8t-37 -8t-31.5 -21.5t-22 -31.5t-8.5 -37t8.5 -37t22 -31.5t31.5 -21.5t37 -8t37 8t31.5 21.5t21.5 31.5t8 37zM905 1200q0 -39 -15 -73.5t-40.5 -60t-59.5 -40t-73 -14.5t-73.5 14.5t-60 40t-40.5 60t-15 73.5t15 73.5
t40.5 60t60 40.5t73.5 15t73 -15t59.5 -40.5t40.5 -60t15 -73.5zM1042 872q0 -10 -6 -34l-135 -635q-6 -29 -10 -57t-4 -42q0 -26 4 -41.5t4 -29.5t-15.5 -21t-33.5 -12q-20 -5 -31 -6.5t-22 -1.5q-14 0 -20 7.5t-11 18.5q-3 8 -7.5 29t-4.5 43v37q-18 -23 -46.5 -47
t-66 -43.5t-84 -32t-100.5 -12.5q-73 0 -123.5 22t-81 57t-43.5 78.5t-12 86.5q0 48 9 101t23 118l88 411q3 14 16.5 24.5t51.5 10.5q25 0 37 -2.5t20 -7.5q8 -8 8 -19q0 -10 -6 -34l-88 -416q-9 -47 -15.5 -92t-6.5 -70q0 -45 12.5 -75t34.5 -48t50 -25.5t60 -7.5
q51 0 103 21.5t96 60t77 91.5t46 116l100 473q3 14 16.5 24.5t51.5 10.5q25 0 37 -2.5t20 -7.5q8 -8 8 -19z" />
    <glyph glyph-name="Uring" unicode="&#x16e;" horiz-adv-x="1288" 
d="M1423 1350q0 -11 -6 -35l-192 -905q-21 -99 -59.5 -179.5t-102.5 -138.5t-157.5 -89.5t-223.5 -31.5q-117 0 -200 26t-136.5 73t-78.5 112.5t-25 145.5q0 32 3 66t11 69l188 883q4 15 18.5 24.5t55.5 9.5q26 0 40 -2.5t22 -7.5q10 -8 10 -20q0 -11 -6 -35l-185 -862
q-6 -31 -8 -60t-2 -55q0 -56 15.5 -101t49.5 -76.5t88 -48t130 -16.5q87 0 154.5 18t118 57t84.5 100.5t52 148.5l197 926q3 15 17.5 24.5t56.5 9.5q26 0 39.5 -2.5t21.5 -7.5q10 -8 10 -20zM1087 1651q0 19 -8 37t-21.5 31.5t-31.5 21.5t-37 8t-37 -8t-31.5 -21.5
t-21.5 -31.5t-8 -37t8 -37t21.5 -31.5t31.5 -21.5t37 -8t37 8t31.5 21.5t21.5 31.5t8 37zM1177 1651q0 -39 -15 -73.5t-40.5 -60t-59.5 -40t-73 -14.5t-73.5 14.5t-60 40t-40.5 60t-15 73.5t15 73.5t40.5 60t60 40.5t73.5 15t73 -15t59.5 -40.5t40.5 -60t15 -73.5z" />
    <glyph glyph-name="umacron" unicode="&#x16b;" horiz-adv-x="1006" 
d="M946 1153q0 -25 -4 -46t-12 -34q-5 -8 -11.5 -10t-23.5 -2h-363q-9 0 -14 1t-8 3q-6 5 -7 9.5t-1 17.5q0 24 4 47.5t10 31.5t13.5 10.5t21.5 2.5h364q15 0 23 -4q6 -5 7 -11.5t1 -15.5zM1042 872q0 -10 -6 -34l-135 -635q-6 -29 -10 -57t-4 -42q0 -26 4 -41.5t4 -29.5
t-15.5 -21t-33.5 -12q-20 -5 -31 -6.5t-22 -1.5q-14 0 -20 7.5t-11 18.5q-3 8 -7.5 29t-4.5 43v37q-18 -23 -46.5 -47t-66 -43.5t-84 -32t-100.5 -12.5q-73 0 -123.5 22t-81 57t-43.5 78.5t-12 86.5q0 48 9 101t23 118l88 411q3 14 16.5 24.5t51.5 10.5q25 0 37 -2.5
t20 -7.5q8 -8 8 -19q0 -10 -6 -34l-88 -416q-9 -47 -15.5 -92t-6.5 -70q0 -45 12.5 -75t34.5 -48t50 -25.5t60 -7.5q51 0 103 21.5t96 60t77 91.5t46 116l100 473q3 14 16.5 24.5t51.5 10.5q25 0 37 -2.5t20 -7.5q8 -8 8 -19z" />
    <glyph glyph-name="Umacron" unicode="&#x16a;" horiz-adv-x="1288" 
d="M1423 1350q0 -11 -6 -35l-192 -905q-21 -99 -59.5 -179.5t-102.5 -138.5t-157.5 -89.5t-223.5 -31.5q-117 0 -200 26t-136.5 73t-78.5 112.5t-25 145.5q0 32 3 66t11 69l188 883q4 15 18.5 24.5t55.5 9.5q26 0 40 -2.5t22 -7.5q10 -8 10 -20q0 -11 -6 -35l-185 -862
q-6 -31 -8 -60t-2 -55q0 -56 15.5 -101t49.5 -76.5t88 -48t130 -16.5q87 0 154.5 18t118 57t84.5 100.5t52 148.5l197 926q3 15 17.5 24.5t56.5 9.5q26 0 39.5 -2.5t21.5 -7.5q10 -8 10 -20zM1196 1558q-4 -21 -12 -34q-5 -8 -11.5 -10t-23.5 -2h-363q-9 0 -14 1t-8 3
q-6 5 -7 9.5t-1 17.5q0 24 4 47.5t10 31.5t13.5 10.5t21.5 2.5h364q15 0 23 -4q6 -5 7 -11.5t1 -15.5q0 -25 -4 -46z" />
    <glyph glyph-name="tcaron" unicode="&#x165;" horiz-adv-x="608" 
d="M748 877q0 -10 -4.5 -23t-10.5 -29q-8 -20 -19 -33.5t-40 -13.5h-221l-111 -518q-5 -25 -7.5 -46t-2.5 -44q0 -32 23.5 -53t66.5 -21q46 0 72.5 11.5t42.5 17.5q9 5 16 8.5t18 3.5t19 -9.5t16 -23.5q15 -27 15 -41t-14 -23.5t-46 -25.5q-31 -14 -69.5 -24t-94.5 -10
q-99 0 -150.5 43t-51.5 118q0 22 3.5 55.5t12.5 73.5l108 508h-86q-32 0 -32 17q0 9 4 22t10 29q8 20 19 33.5t40 13.5h70l49 231q3 16 7.5 24t9.5 13q8 8 20.5 13t26.5 8q15 3 26 4.5t25 1.5q27 0 27 -19q0 -5 -1.5 -10.5t-3.5 -13.5l-53 -252h238q33 0 33 -16zM893 1352
q0 -13 -7.5 -27t-16.5 -31l-142 -262q-6 -12 -12.5 -19t-15.5 -10.5t-22 -4.5t-32 -1q-26 0 -33.5 6.5t-7.5 14.5t4.5 19t12.5 30l117 270q11 25 29.5 34t62.5 9q21 0 33 -2.5t19 -6.5t9 -9t2 -10z" />
    <glyph glyph-name="Tcaron" unicode="&#x164;" horiz-adv-x="1083" 
d="M1343 1352q0 -6 -2.5 -17t-6 -22t-7 -20t-4.5 -13q-9 -22 -20.5 -30.5t-32.5 -8.5h-393l-259 -1214q-3 -16 -17.5 -25.5t-55.5 -9.5q-26 0 -40 2.5t-22 7.5q-10 7 -10 21q0 10 6 34l252 1184h-416q-17 0 -21.5 6.5t-4.5 14.5q0 6 2.5 16.5t6 21.5t6.5 20t5 13
q10 22 21 30.5t32 8.5h955q17 0 21.5 -6t4.5 -14zM1210 1778q0 -8 -5.5 -17.5t-25.5 -29.5l-233 -217q-18 -17 -29 -27.5t-21 -16t-19.5 -7.5t-24.5 -2q-16 0 -26.5 1.5t-18.5 7t-15.5 15.5t-17.5 27l-125 215q-14 25 -19.5 34t-5.5 17q0 12 11.5 17.5t46.5 5.5
q31 0 49 -4.5t29 -24.5l102 -176l209 178q8 7 15.5 12.5t15.5 9.5t19 5.5t26 1.5q35 0 49 -6.5t14 -18.5z" />
    <glyph glyph-name="tcedilla" unicode="&#x163;" horiz-adv-x="608" 
d="M748 877q0 -10 -4.5 -23t-10.5 -29q-8 -20 -19 -33.5t-40 -13.5h-221l-111 -518q-5 -25 -7.5 -46t-2.5 -44q0 -32 23.5 -53t66.5 -21q46 0 72.5 11.5t42.5 17.5q9 5 16 8.5t18 3.5t19 -9.5t16 -23.5q15 -27 15 -41t-14 -23.5t-46 -25.5q-31 -14 -69.5 -24t-94.5 -10
q-99 0 -150.5 43t-51.5 118q0 22 3.5 55.5t12.5 73.5l108 508h-86q-32 0 -32 17q0 9 4 22t10 29q8 20 19 33.5t40 13.5h70l49 231q3 16 7.5 24t9.5 13q8 8 20.5 13t26.5 8q15 3 26 4.5t25 1.5q27 0 27 -19q0 -5 -1.5 -10.5t-3.5 -13.5l-53 -252h238q33 0 33 -16zM436 -92
q0 -14 -7.5 -32t-19.5 -44l-96 -203q-6 -11 -11 -18t-12.5 -11t-19 -5t-29.5 -1q-28 0 -36.5 8t-8.5 17q0 8 2.5 19t7.5 26l74 232q8 24 24.5 33.5t59.5 9.5q42 0 57 -9.5t15 -21.5z" />
    <glyph glyph-name="Tcedilla" unicode="&#x162;" horiz-adv-x="1083" 
d="M1343 1352q0 -6 -2.5 -17t-6 -22t-7 -20t-4.5 -13q-9 -22 -20.5 -30.5t-32.5 -8.5h-393l-259 -1214q-3 -16 -17.5 -25.5t-55.5 -9.5q-26 0 -40 2.5t-22 7.5q-10 7 -10 21q0 10 6 34l252 1184h-416q-17 0 -21.5 6.5t-4.5 14.5q0 6 2.5 16.5t6 21.5t6.5 20t5 13
q10 22 21 30.5t32 8.5h955q17 0 21.5 -6t4.5 -14zM606 -92q0 -14 -7.5 -32t-19.5 -44l-96 -203q-6 -11 -11 -18t-12.5 -11t-19 -5t-29.5 -1q-28 0 -36.5 8t-8.5 17q0 8 2.5 19t7.5 26l74 232q8 24 24.5 33.5t59.5 9.5q42 0 57 -9.5t15 -21.5z" />
    <glyph glyph-name="sacute" unicode="&#x15b;" horiz-adv-x="774" 
d="M821 827q0 -9 -3 -18.5t-11 -26.5q-8 -14 -15 -24t-26 -10q-16 0 -31 6.5t-41 17.5q-32 12 -80 23.5t-114 11.5q-40 0 -74.5 -9t-60 -27t-40 -44.5t-14.5 -60.5q0 -57 38.5 -88.5t109.5 -53.5l80 -24q41 -13 82 -30t73.5 -43.5t53 -64t20.5 -92.5q0 -73 -28 -127.5
t-76.5 -90.5t-114 -54t-141.5 -18q-66 0 -118.5 9t-90.5 20.5t-61 23t-32 16.5q-18 11 -25 19.5t-7 17.5q0 8 4.5 21t15.5 28q14 19 21.5 23t21.5 4q13 0 30 -10t34 -19q8 -5 27 -12.5t45.5 -14.5t59.5 -12.5t70 -5.5q52 0 94 10.5t72 31t46 51t16 69.5q0 55 -42 87.5
t-118 55.5l-82 25q-42 12 -79.5 31.5t-65.5 47t-44 64t-16 82.5q0 67 26 117.5t71 84.5t105 51t128 17q51 0 91.5 -4.5t72.5 -11t56.5 -15t43.5 -16.5q28 -11 35.5 -20t7.5 -19zM826 1321q0 -11 -8.5 -25.5t-28.5 -42.5l-139 -200q-6 -8 -13.5 -16.5t-15.5 -14.5
q-8 -5 -19 -7.5t-36 -2.5q-32 0 -42.5 5.5t-10.5 16.5q0 8 5 19.5t13 25.5l125 234q14 25 37 32t65 7q39 0 53.5 -8.5t14.5 -22.5z" />
    <glyph glyph-name="Sacute" unicode="&#x15a;" horiz-adv-x="1040" 
d="M1159 1280q0 -19 -20 -53q-13 -20 -21 -28.5t-20 -8.5q-11 0 -19.5 3.5t-19.5 8.5q-35 16 -66.5 29t-67.5 22t-79.5 14t-102.5 5q-60 0 -119.5 -15.5t-106.5 -48t-76 -82.5t-29 -118q0 -42 14 -76t39 -60t60.5 -44.5t78.5 -30.5l182 -54q64 -18 114 -46t85.5 -67t54 -90
t19.5 -116q0 -84 -20 -150t-56 -116.5t-85.5 -86t-106.5 -58t-119 -32.5t-125 -10q-89 0 -159 13.5t-121.5 32.5t-85.5 39.5t-52 33.5q-22 16 -29.5 26t-7.5 19q0 8 3 19.5t16 29.5q14 20 26.5 32.5t26.5 12.5t29.5 -10t35.5 -24q14 -10 41.5 -26t66.5 -31t89 -25.5
t109 -10.5q64 0 130 13t120 46t88 89t34 143t-50 140t-144 79l-158 45q-139 41 -213 115.5t-74 196.5q0 111 43 192t113.5 134t160 78.5t181.5 25.5q118 0 204.5 -22.5t151.5 -57.5q16 -9 26.5 -18t10.5 -21zM1063 1772q0 -11 -8.5 -25.5t-28.5 -42.5l-139 -200
q-6 -8 -13.5 -16.5t-15.5 -14.5q-8 -5 -19 -7.5t-36 -2.5q-32 0 -42.5 5.5t-10.5 16.5q0 8 5 19.5t13 25.5l125 234q14 25 37 32t65 7q39 0 53.5 -8.5t14.5 -22.5z" />
    <glyph glyph-name="rcaron" unicode="&#x159;" horiz-adv-x="653" 
d="M819 850q0 -9 -5.5 -24.5t-14.5 -30.5q-10 -16 -19.5 -29.5t-23.5 -13.5t-24.5 3.5t-24.5 8.5q-10 3 -24 5.5t-42 2.5q-37 0 -79.5 -22t-81.5 -63t-71 -98.5t-47 -127.5l-92 -434q-3 -14 -16 -24.5t-51 -10.5q-25 0 -37.5 2.5t-20.5 7.5q-8 8 -8 18q0 11 6 35l166 787
q3 15 7.5 23.5t9.5 13.5q8 8 20.5 12.5t26.5 7.5q15 3 26 4.5t25 1.5q27 0 27 -18q0 -8 -5 -25l-22 -106q37 46 72.5 75t69 45.5t65.5 22.5t63 6q25 0 44 -4t36 -10q45 -16 45 -41zM955 1327q0 -8 -5.5 -17.5t-25.5 -29.5l-233 -217q-18 -17 -29 -27.5t-21 -16t-19.5 -7.5
t-24.5 -2q-16 0 -26.5 1.5t-18.5 7t-15.5 15.5t-17.5 27l-125 215q-14 25 -19.5 34t-5.5 17q0 12 11.5 17.5t46.5 5.5q31 0 49 -4.5t29 -24.5l102 -176l209 178q8 7 15.5 12.5t15.5 9.5t19 5.5t26 1.5q35 0 49 -6.5t14 -18.5z" />
    <glyph glyph-name="Rcaron" unicode="&#x158;" horiz-adv-x="1141" 
d="M1083 1042q0 100 -61.5 152.5t-198.5 52.5h-252l-110 -518q60 -6 117.5 -8t99.5 -2q91 0 159.5 14t116.5 44t77.5 75.5t43.5 108.5q5 21 6.5 42t1.5 39zM1239 1055q0 -52 -12 -107q-15 -68 -44.5 -125t-78 -101t-118 -74.5t-163.5 -45.5l291 -547q6 -12 10 -21.5t4 -17.5
q0 -14 -24 -20q-9 -2 -21 -3t-43 -1q-38 0 -58 7t-30 26l-276 569q-69 0 -126.5 2.5t-113.5 7.5l-123 -577q-3 -16 -15.5 -25.5t-53.5 -9.5q-26 0 -40 2.5t-22 7.5q-10 7 -10 21q0 10 6 34l266 1258q8 31 23 43q8 6 20 10t41 4h312q106 0 181.5 -23.5t124 -65.5t71 -100
t22.5 -128zM1212 1778q0 -8 -5.5 -17.5t-25.5 -29.5l-233 -217q-18 -17 -29 -27.5t-21 -16t-19.5 -7.5t-24.5 -2q-16 0 -26.5 1.5t-18.5 7t-15.5 15.5t-17.5 27l-125 215q-14 25 -19.5 34t-5.5 17q0 12 11.5 17.5t46.5 5.5q31 0 49 -4.5t29 -24.5l102 -176l209 178
q8 7 15.5 12.5t15.5 9.5t19 5.5t26 1.5q35 0 49 -6.5t14 -18.5z" />
    <glyph glyph-name="rcedilla" unicode="&#x157;" horiz-adv-x="653" 
d="M819 850q0 -9 -5.5 -24.5t-14.5 -30.5q-10 -16 -19.5 -29.5t-23.5 -13.5t-24.5 3.5t-24.5 8.5q-10 3 -24 5.5t-42 2.5q-37 0 -79.5 -22t-81.5 -63t-71 -98.5t-47 -127.5l-92 -434q-3 -14 -16 -24.5t-51 -10.5q-25 0 -37.5 2.5t-20.5 7.5q-8 8 -8 18q0 11 6 35l166 787
q3 15 7.5 23.5t9.5 13.5q8 8 20.5 12.5t26.5 7.5q15 3 26 4.5t25 1.5q27 0 27 -18q0 -8 -5 -25l-22 -106q37 46 72.5 75t69 45.5t65.5 22.5t63 6q25 0 44 -4t36 -10q45 -16 45 -41zM270 -92q0 -14 -7.5 -32t-19.5 -44l-96 -203q-6 -11 -11 -18t-12.5 -11t-19 -5t-29.5 -1
q-28 0 -36.5 8t-8.5 17q0 8 2.5 19t7.5 26l74 232q8 24 24.5 33.5t59.5 9.5q42 0 57 -9.5t15 -21.5z" />
    <glyph glyph-name="Rcedilla" unicode="&#x156;" horiz-adv-x="1141" 
d="M1083 1042q0 100 -61.5 152.5t-198.5 52.5h-252l-110 -518q60 -6 117.5 -8t99.5 -2q91 0 159.5 14t116.5 44t77.5 75.5t43.5 108.5q5 21 6.5 42t1.5 39zM1239 1055q0 -52 -12 -107q-15 -68 -44.5 -125t-78 -101t-118 -74.5t-163.5 -45.5l291 -547q6 -12 10 -21.5t4 -17.5
q0 -14 -24 -20q-9 -2 -21 -3t-43 -1q-38 0 -58 7t-30 26l-276 569q-69 0 -126.5 2.5t-113.5 7.5l-123 -577q-3 -16 -15.5 -25.5t-53.5 -9.5q-26 0 -40 2.5t-22 7.5q-10 7 -10 21q0 10 6 34l266 1258q8 31 23 43q8 6 20 10t41 4h312q106 0 181.5 -23.5t124 -65.5t71 -100
t22.5 -128zM693 -92q0 -14 -7.5 -32t-19.5 -44l-96 -203q-6 -11 -11 -18t-12.5 -11t-19 -5t-29.5 -1q-28 0 -36.5 8t-8.5 17q0 8 2.5 19t7.5 26l74 232q8 24 24.5 33.5t59.5 9.5q42 0 57 -9.5t15 -21.5z" />
    <glyph glyph-name="racute" unicode="&#x155;" horiz-adv-x="653" 
d="M819 850q0 -9 -5.5 -24.5t-14.5 -30.5q-10 -16 -19.5 -29.5t-23.5 -13.5t-24.5 3.5t-24.5 8.5q-10 3 -24 5.5t-42 2.5q-37 0 -79.5 -22t-81.5 -63t-71 -98.5t-47 -127.5l-92 -434q-3 -14 -16 -24.5t-51 -10.5q-25 0 -37.5 2.5t-20.5 7.5q-8 8 -8 18q0 11 6 35l166 787
q3 15 7.5 23.5t9.5 13.5q8 8 20.5 12.5t26.5 7.5q15 3 26 4.5t25 1.5q27 0 27 -18q0 -8 -5 -25l-22 -106q37 46 72.5 75t69 45.5t65.5 22.5t63 6q25 0 44 -4t36 -10q45 -16 45 -41zM853 1321q0 -11 -8.5 -25.5t-28.5 -42.5l-139 -200q-6 -8 -13.5 -16.5t-15.5 -14.5
q-8 -5 -19 -7.5t-36 -2.5q-32 0 -42.5 5.5t-10.5 16.5q0 8 5 19.5t13 25.5l125 234q14 25 37 32t65 7q39 0 53.5 -8.5t14.5 -22.5z" />
    <glyph glyph-name="Racute" unicode="&#x154;" horiz-adv-x="1141" 
d="M1083 1042q0 100 -61.5 152.5t-198.5 52.5h-252l-110 -518q60 -6 117.5 -8t99.5 -2q91 0 159.5 14t116.5 44t77.5 75.5t43.5 108.5q5 21 6.5 42t1.5 39zM1239 1055q0 -52 -12 -107q-15 -68 -44.5 -125t-78 -101t-118 -74.5t-163.5 -45.5l291 -547q6 -12 10 -21.5t4 -17.5
q0 -14 -24 -20q-9 -2 -21 -3t-43 -1q-38 0 -58 7t-30 26l-276 569q-69 0 -126.5 2.5t-113.5 7.5l-123 -577q-3 -16 -15.5 -25.5t-53.5 -9.5q-26 0 -40 2.5t-22 7.5q-10 7 -10 21q0 10 6 34l266 1258q8 31 23 43q8 6 20 10t41 4h312q106 0 181.5 -23.5t124 -65.5t71 -100
t22.5 -128zM1108 1772q0 -11 -8.5 -25.5t-28.5 -42.5l-139 -200q-6 -8 -13.5 -16.5t-15.5 -14.5q-8 -5 -19 -7.5t-36 -2.5q-32 0 -42.5 5.5t-10.5 16.5q0 8 5 19.5t13 25.5l125 234q14 25 37 32t65 7q39 0 53.5 -8.5t14.5 -22.5z" />
    <glyph glyph-name="odblacute" unicode="&#x151;" horiz-adv-x="987" 
d="M868 549q0 54 -13.5 100t-41.5 80.5t-70 54t-100 19.5q-69 0 -125 -30t-98.5 -80.5t-71 -116t-41.5 -136.5q-5 -24 -6.5 -48.5t-1.5 -47.5q0 -54 13 -100t39.5 -80.5t67.5 -54t97 -19.5q71 0 128.5 30t100.5 80.5t71.5 116t41.5 136.5q5 24 7.5 48.5t2.5 47.5zM1001 553
q0 -26 -2 -55.5t-8 -61.5q-18 -101 -62 -184.5t-107 -144t-141.5 -94t-166.5 -33.5q-80 0 -144.5 23.5t-109.5 68.5t-69.5 112t-24.5 154q0 28 2 58.5t8 62.5q17 98 60.5 181.5t106.5 144t142.5 94.5t169.5 34q79 0 143 -24t109 -70t69.5 -113t24.5 -153zM836 1323
q0 -11 -7.5 -25.5t-27.5 -42.5l-135 -188q-14 -19 -23.5 -29.5t-17.5 -15.5t-17.5 -7.5t-33.5 -2.5q-31 0 -40 5.5t-9 16.5q0 8 5 18.5t13 24.5l133 238q14 25 36 31t60 6q37 0 50.5 -7.5t13.5 -21.5zM1112 1323q0 -11 -7.5 -25.5t-27.5 -42.5l-135 -188q-27 -37 -41 -45
q-8 -5 -17 -7.5t-34 -2.5q-31 0 -40 5.5t-9 16.5q0 8 5 18.5t13 24.5l134 238q14 25 36 31t60 6q37 0 50 -7.5t13 -21.5z" />
    <glyph glyph-name="Odblacute" unicode="&#x150;" horiz-adv-x="1335" 
d="M1251 907q1 86 -19 154.5t-59 116t-97.5 73t-135.5 25.5q-99 0 -184.5 -41t-154.5 -117t-120 -185t-80 -245q-12 -62 -19 -118t-7 -105q-1 -87 18.5 -155.5t59 -116t98.5 -72.5t137 -25q98 0 182.5 40t152.5 115.5t118.5 184t81.5 244.5q14 63 21 119t7 108zM1407 905
q0 -52 -8 -108.5t-21 -116.5q-37 -173 -105 -305.5t-160.5 -222t-205.5 -135.5t-239 -46q-104 0 -187.5 32.5t-142 95t-89.5 154t-30 210.5q0 52 6.5 107.5t20.5 117.5q37 173 106 306t162 223.5t206.5 137t240.5 46.5q103 0 185.5 -33t141 -96.5t89.5 -156t30 -210.5z
M1110 1774q0 -11 -7.5 -25.5t-27.5 -42.5l-135 -188q-14 -19 -23.5 -29.5t-17.5 -15.5t-17.5 -7.5t-33.5 -2.5q-31 0 -40 5.5t-9 16.5q0 8 5 18.5t13 24.5l133 238q14 25 36 31t60 6q37 0 50.5 -7.5t13.5 -21.5zM1386 1774q0 -11 -7.5 -25.5t-27.5 -42.5l-135 -188
q-27 -37 -41 -45q-8 -5 -17 -7.5t-34 -2.5q-31 0 -40 5.5t-9 16.5q0 8 5 18.5t13 24.5l134 238q14 25 36 31t60 6q37 0 50 -7.5t13 -21.5z" />
    <glyph glyph-name="omacron" unicode="&#x14d;" horiz-adv-x="987" 
d="M868 549q0 54 -13.5 100t-41.5 80.5t-70 54t-100 19.5q-69 0 -125 -30t-98.5 -80.5t-71 -116t-41.5 -136.5q-5 -24 -6.5 -48.5t-1.5 -47.5q0 -54 13 -100t39.5 -80.5t67.5 -54t97 -19.5q71 0 128.5 30t100.5 80.5t71.5 116t41.5 136.5q5 24 7.5 48.5t2.5 47.5zM1001 553
q0 -26 -2 -55.5t-8 -61.5q-18 -101 -62 -184.5t-107 -144t-141.5 -94t-166.5 -33.5q-80 0 -144.5 23.5t-109.5 68.5t-69.5 112t-24.5 154q0 28 2 58.5t8 62.5q17 98 60.5 181.5t106.5 144t142.5 94.5t169.5 34q79 0 143 -24t109 -70t69.5 -113t24.5 -153zM967 1107
q-4 -21 -12 -34q-5 -8 -11.5 -10t-23.5 -2h-363q-9 0 -14 1t-8 3q-6 5 -7 9.5t-1 17.5q0 24 4 47.5t10 31.5t13.5 10.5t21.5 2.5h364q15 0 23 -4q6 -5 7 -11.5t1 -15.5q0 -25 -4 -46z" />
    <glyph glyph-name="Omacron" unicode="&#x14c;" horiz-adv-x="1335" 
d="M1251 907q1 86 -19 154.5t-59 116t-97.5 73t-135.5 25.5q-99 0 -184.5 -41t-154.5 -117t-120 -185t-80 -245q-12 -62 -19 -118t-7 -105q-1 -87 18.5 -155.5t59 -116t98.5 -72.5t137 -25q98 0 182.5 40t152.5 115.5t118.5 184t81.5 244.5q14 63 21 119t7 108zM1407 905
q0 -52 -8 -108.5t-21 -116.5q-37 -173 -105 -305.5t-160.5 -222t-205.5 -135.5t-239 -46q-104 0 -187.5 32.5t-142 95t-89.5 154t-30 210.5q0 52 6.5 107.5t20.5 117.5q37 173 106 306t162 223.5t206.5 137t240.5 46.5q103 0 185.5 -33t141 -96.5t89.5 -156t30 -210.5z
M1237 1558q-4 -21 -12 -34q-5 -8 -11.5 -10t-23.5 -2h-363q-9 0 -14 1t-8 3q-6 5 -7 9.5t-1 17.5q0 24 4 47.5t10 31.5t13.5 10.5t21.5 2.5h364q15 0 23 -4q6 -5 7 -11.5t1 -15.5q0 -25 -4 -46z" />
    <glyph glyph-name="ncaron" unicode="&#x148;" horiz-adv-x="1001" 
d="M989 670q0 -48 -8.5 -101t-24.5 -118l-61 -248q-8 -29 -12 -57t-4 -42q0 -26 4 -41.5t4 -29.5t-15.5 -21t-33.5 -12q-20 -5 -31.5 -6.5t-22.5 -1.5q-14 0 -20.5 6.5t-11.5 17.5q-3 8 -6 23.5t-3 44.5q0 20 4 50t13 65l69 284q11 47 17 92t6 70q0 45 -13 75t-34.5 48
t-50.5 25.5t-60 7.5q-51 0 -102.5 -21.5t-95.5 -60t-77 -91.5t-46 -116l-103 -485q-3 -14 -16 -24.5t-51 -10.5q-25 0 -37.5 2.5t-20.5 7.5q-8 8 -8 18q0 11 6 35l166 787q3 15 7.5 23.5t9.5 13.5q8 8 20.5 12.5t26.5 7.5q15 3 26 4.5t25 1.5q27 0 27 -18q0 -8 -5 -25
l-18 -88q19 23 50.5 47.5t71 45t85.5 33.5t94 13q73 0 123 -22t81 -57t44 -78t12 -86zM1060 1327q0 -8 -5.5 -17.5t-25.5 -29.5l-233 -217q-18 -17 -29 -27.5t-21 -16t-19.5 -7.5t-24.5 -2q-16 0 -26.5 1.5t-18.5 7t-15.5 15.5t-17.5 27l-125 215q-14 25 -19.5 34t-5.5 17
q0 12 11.5 17.5t46.5 5.5q31 0 49 -4.5t29 -24.5l102 -176l209 178q8 7 15.5 12.5t15.5 9.5t19 5.5t26 1.5q35 0 49 -6.5t14 -18.5z" />
    <glyph glyph-name="Ncaron" unicode="&#x147;" horiz-adv-x="1251" 
d="M1372 1350q0 -11 -6 -35l-272 -1278q-3 -14 -8 -21t-13 -12q-6 -5 -21 -8.5t-44 -3.5q-32 0 -46 9.5t-22 29.5l-403 1061l-226 -1065q-3 -16 -16.5 -25.5t-54.5 -9.5q-26 0 -38 2.5t-20 7.5q-10 7 -10 21q0 10 6 34l256 1207l-20 45q-6 12 -9.5 20.5t-3.5 18.5
q0 15 15 23.5t61 8.5q47 0 66.5 -6.5t27.5 -27.5l426 -1106l236 1106q3 15 16.5 24.5t55.5 9.5q26 0 37.5 -2.5t19.5 -7.5q10 -8 10 -20zM1298 1778q0 -8 -5.5 -17.5t-25.5 -29.5l-233 -217q-18 -17 -29 -27.5t-21 -16t-19.5 -7.5t-24.5 -2q-16 0 -26.5 1.5t-18.5 7
t-15.5 15.5t-17.5 27l-125 215q-14 25 -19.5 34t-5.5 17q0 12 11.5 17.5t46.5 5.5q31 0 49 -4.5t29 -24.5l102 -176l209 178q8 7 15.5 12.5t15.5 9.5t19 5.5t26 1.5q35 0 49 -6.5t14 -18.5z" />
    <glyph glyph-name="ncedilla" unicode="&#x146;" horiz-adv-x="1001" 
d="M989 670q0 -48 -8.5 -101t-24.5 -118l-61 -248q-8 -29 -12 -57t-4 -42q0 -26 4 -41.5t4 -29.5t-15.5 -21t-33.5 -12q-20 -5 -31.5 -6.5t-22.5 -1.5q-14 0 -20.5 6.5t-11.5 17.5q-3 8 -6 23.5t-3 44.5q0 20 4 50t13 65l69 284q11 47 17 92t6 70q0 45 -13 75t-34.5 48
t-50.5 25.5t-60 7.5q-51 0 -102.5 -21.5t-95.5 -60t-77 -91.5t-46 -116l-103 -485q-3 -14 -16 -24.5t-51 -10.5q-25 0 -37.5 2.5t-20.5 7.5q-8 8 -8 18q0 11 6 35l166 787q3 15 7.5 23.5t9.5 13.5q8 8 20.5 12.5t26.5 7.5q15 3 26 4.5t25 1.5q27 0 27 -18q0 -8 -5 -25
l-18 -88q19 23 50.5 47.5t71 45t85.5 33.5t94 13q73 0 123 -22t81 -57t44 -78t12 -86zM589 -92q0 -14 -7.5 -32t-19.5 -44l-96 -203q-6 -11 -11 -18t-12.5 -11t-19 -5t-29.5 -1q-28 0 -36.5 8t-8.5 17q0 8 2.5 19t7.5 26l74 232q8 24 24.5 33.5t59.5 9.5q42 0 57 -9.5
t15 -21.5z" />
    <glyph glyph-name="Ncedilla" unicode="&#x145;" horiz-adv-x="1251" 
d="M1372 1350q0 -11 -6 -35l-272 -1278q-3 -14 -8 -21t-13 -12q-6 -5 -21 -8.5t-44 -3.5q-32 0 -46 9.5t-22 29.5l-403 1061l-226 -1065q-3 -16 -16.5 -25.5t-54.5 -9.5q-26 0 -38 2.5t-20 7.5q-10 7 -10 21q0 10 6 34l256 1207l-20 45q-6 12 -9.5 20.5t-3.5 18.5
q0 15 15 23.5t61 8.5q47 0 66.5 -6.5t27.5 -27.5l426 -1106l236 1106q3 15 16.5 24.5t55.5 9.5q26 0 37.5 -2.5t19.5 -7.5q10 -8 10 -20zM709 -92q0 -14 -7.5 -32t-19.5 -44l-96 -203q-6 -11 -11 -18t-12.5 -11t-19 -5t-29.5 -1q-28 0 -36.5 8t-8.5 17q0 8 2.5 19t7.5 26
l74 232q8 24 24.5 33.5t59.5 9.5q42 0 57 -9.5t15 -21.5z" />
    <glyph glyph-name="nacute" unicode="&#x144;" horiz-adv-x="1001" 
d="M989 670q0 -48 -8.5 -101t-24.5 -118l-61 -248q-8 -29 -12 -57t-4 -42q0 -26 4 -41.5t4 -29.5t-15.5 -21t-33.5 -12q-20 -5 -31.5 -6.5t-22.5 -1.5q-14 0 -20.5 6.5t-11.5 17.5q-3 8 -6 23.5t-3 44.5q0 20 4 50t13 65l69 284q11 47 17 92t6 70q0 45 -13 75t-34.5 48
t-50.5 25.5t-60 7.5q-51 0 -102.5 -21.5t-95.5 -60t-77 -91.5t-46 -116l-103 -485q-3 -14 -16 -24.5t-51 -10.5q-25 0 -37.5 2.5t-20.5 7.5q-8 8 -8 18q0 11 6 35l166 787q3 15 7.5 23.5t9.5 13.5q8 8 20.5 12.5t26.5 7.5q15 3 26 4.5t25 1.5q27 0 27 -18q0 -8 -5 -25
l-18 -88q19 23 50.5 47.5t71 45t85.5 33.5t94 13q73 0 123 -22t81 -57t44 -78t12 -86zM960 1321q0 -11 -8.5 -25.5t-28.5 -42.5l-139 -200q-6 -8 -13.5 -16.5t-15.5 -14.5q-8 -5 -19 -7.5t-36 -2.5q-32 0 -42.5 5.5t-10.5 16.5q0 8 5 19.5t13 25.5l125 234q14 25 37 32t65 7
q39 0 53.5 -8.5t14.5 -22.5z" />
    <glyph glyph-name="Nacute" unicode="&#x143;" horiz-adv-x="1251" 
d="M1372 1350q0 -11 -6 -35l-272 -1278q-3 -14 -8 -21t-13 -12q-6 -5 -21 -8.5t-44 -3.5q-32 0 -46 9.5t-22 29.5l-403 1061l-226 -1065q-3 -16 -16.5 -25.5t-54.5 -9.5q-26 0 -38 2.5t-20 7.5q-10 7 -10 21q0 10 6 34l256 1207l-20 45q-6 12 -9.5 20.5t-3.5 18.5
q0 15 15 23.5t61 8.5q47 0 66.5 -6.5t27.5 -27.5l426 -1106l236 1106q3 15 16.5 24.5t55.5 9.5q26 0 37.5 -2.5t19.5 -7.5q10 -8 10 -20zM1192 1772q0 -11 -8.5 -25.5t-28.5 -42.5l-139 -200q-6 -8 -13.5 -16.5t-15.5 -14.5q-8 -5 -19 -7.5t-36 -2.5q-32 0 -42.5 5.5
t-10.5 16.5q0 8 5 19.5t13 25.5l125 234q14 25 37 32t65 7q39 0 53.5 -8.5t14.5 -22.5z" />
    <glyph glyph-name="lcaron" unicode="&#x13e;" horiz-adv-x="481" 
d="M553 1362q0 -5 -1 -11t-3 -14l-242 -1134q-6 -29 -10 -57t-4 -42q0 -26 4 -41.5t4 -29.5t-15.5 -21t-33.5 -12q-20 -5 -31 -6.5t-22 -1.5q-14 0 -21 6.5t-12 17.5q-3 8 -5.5 23.5t-2.5 44.5q0 20 4 50t12 65l238 1118q3 15 7 23.5t9 13.5q8 8 20.5 12.5t26.5 7.5
q16 3 26.5 4.5t24.5 1.5q27 0 27 -18zM860 1352q0 -13 -7.5 -27t-16.5 -31l-142 -262q-6 -12 -12.5 -19t-15.5 -10.5t-22 -4.5t-32 -1q-26 0 -33.5 6.5t-7.5 14.5t4.5 19t12.5 30l117 270q11 25 29.5 34t62.5 9q21 0 33 -2.5t19 -6.5t9 -9t2 -10z" />
    <glyph glyph-name="Lcaron" unicode="&#x13d;" horiz-adv-x="948" 
d="M961 111q0 -6 -2.5 -17t-6.5 -22t-7.5 -20t-4.5 -13q-9 -22 -20.5 -30.5t-32.5 -8.5h-654q-29 0 -45 8t-16 27q0 8 1 16.5t3 18.5l270 1276q4 15 18.5 24.5t55.5 9.5q26 0 40 -2.5t22 -7.5q10 -8 10 -20q0 -11 -6 -35l-252 -1184h600q17 0 22 -6t5 -14zM952 1352
q0 -13 -7.5 -27t-16.5 -31l-142 -262q-6 -12 -12.5 -19t-15.5 -10.5t-22 -4.5t-32 -1q-26 0 -33.5 6.5t-7.5 14.5t4.5 19t12.5 30l117 270q11 25 29.5 34t62.5 9q21 0 33 -2.5t19 -6.5t9 -9t2 -10z" />
    <glyph glyph-name="lcedilla" unicode="&#x13c;" horiz-adv-x="403" 
d="M553 1362q0 -5 -1 -11t-3 -14l-242 -1134q-6 -29 -10 -57t-4 -42q0 -26 4 -41.5t4 -29.5t-15.5 -21t-33.5 -12q-20 -5 -31 -6.5t-22 -1.5q-14 0 -21 6.5t-12 17.5q-3 8 -5.5 23.5t-2.5 44.5q0 20 4 50t12 65l238 1118q3 15 7 23.5t9 13.5q8 8 20.5 12.5t26.5 7.5
q16 3 26.5 4.5t24.5 1.5q27 0 27 -18zM296 -92q0 -14 -7.5 -32t-19.5 -44l-96 -203q-6 -11 -11 -18t-12.5 -11t-19 -5t-29.5 -1q-28 0 -36.5 8t-8.5 17q0 8 2.5 19t7.5 26l74 232q8 24 24.5 33.5t59.5 9.5q42 0 57 -9.5t15 -21.5z" />
    <glyph glyph-name="Lcedilla" unicode="&#x13b;" horiz-adv-x="948" 
d="M961 111q0 -6 -2.5 -17t-6.5 -22t-7.5 -20t-4.5 -13q-9 -22 -20.5 -30.5t-32.5 -8.5h-654q-29 0 -45 8t-16 27q0 8 1 16.5t3 18.5l270 1276q4 15 18.5 24.5t55.5 9.5q26 0 40 -2.5t22 -7.5q10 -8 10 -20q0 -11 -6 -35l-252 -1184h600q17 0 22 -6t5 -14zM637 -92
q0 -14 -7.5 -32t-19.5 -44l-96 -203q-6 -11 -11 -18t-12.5 -11t-19 -5t-29.5 -1q-28 0 -36.5 8t-8.5 17q0 8 2.5 19t7.5 26l74 232q8 24 24.5 33.5t59.5 9.5q42 0 57 -9.5t15 -21.5z" />
    <glyph glyph-name="lacute" unicode="&#x13a;" horiz-adv-x="403" 
d="M553 1362q0 -5 -1 -11t-3 -14l-242 -1134q-6 -29 -10 -57t-4 -42q0 -26 4 -41.5t4 -29.5t-15.5 -21t-33.5 -12q-20 -5 -31 -6.5t-22 -1.5q-14 0 -21 6.5t-12 17.5q-3 8 -5.5 23.5t-2.5 44.5q0 20 4 50t12 65l238 1118q3 15 7 23.5t9 13.5q8 8 20.5 12.5t26.5 7.5
q16 3 26.5 4.5t24.5 1.5q27 0 27 -18zM777 1772q0 -11 -8.5 -25.5t-28.5 -42.5l-139 -200q-6 -8 -13.5 -16.5t-15.5 -14.5q-8 -5 -19 -7.5t-36 -2.5q-32 0 -42.5 5.5t-10.5 16.5q0 8 5 19.5t13 25.5l125 234q14 25 37 32t65 7q39 0 53.5 -8.5t14.5 -22.5z" />
    <glyph glyph-name="Lacute" unicode="&#x139;" horiz-adv-x="948" 
d="M961 111q0 -6 -2.5 -17t-6.5 -22t-7.5 -20t-4.5 -13q-9 -22 -20.5 -30.5t-32.5 -8.5h-654q-29 0 -45 8t-16 27q0 8 1 16.5t3 18.5l270 1276q4 15 18.5 24.5t55.5 9.5q26 0 40 -2.5t22 -7.5q10 -8 10 -20q0 -11 -6 -35l-252 -1184h600q17 0 22 -6t5 -14zM812 1772
q0 -11 -8.5 -25.5t-28.5 -42.5l-139 -200q-6 -8 -13.5 -16.5t-15.5 -14.5q-8 -5 -19 -7.5t-36 -2.5q-32 0 -42.5 5.5t-10.5 16.5q0 8 5 19.5t13 25.5l125 234q14 25 37 32t65 7q39 0 53.5 -8.5t14.5 -22.5z" />
    <glyph glyph-name="kcedilla" unicode="&#x137;" horiz-adv-x="860" 
d="M969 879q-2 -7 -8 -16t-25 -23l-432 -346l356 -439q13 -15 16 -22.5t1 -14.5q-2 -5 -5.5 -9t-9.5 -7q-4 -2 -8.5 -3.5t-12.5 -2.5t-21.5 -1.5t-35.5 -0.5q-20 0 -32 2t-20 6t-13 10t-10 13l-347 438l-92 -436q-3 -14 -16 -24.5t-51 -10.5q-25 0 -37.5 2.5t-20.5 7.5
q-8 8 -8 18q0 11 6 35l269 1262q3 15 7 23.5t9 13.5q8 8 20.5 12.5t26.5 7.5q16 3 26.5 4.5t24.5 1.5q27 0 27 -18q0 -5 -1 -11t-3 -14l-170 -800l416 335q16 14 35 21.5t63 7.5q34 0 50.5 -2.5t21.5 -5.5q6 -7 4 -14zM569 -92q0 -14 -7.5 -32t-19.5 -44l-96 -203
q-6 -11 -11 -18t-12.5 -11t-19 -5t-29.5 -1q-28 0 -36.5 8t-8.5 17q0 8 2.5 19t7.5 26l74 232q8 24 24.5 33.5t59.5 9.5q42 0 57 -9.5t15 -21.5z" />
    <glyph glyph-name="Kcedilla" unicode="&#x136;" horiz-adv-x="1145" 
d="M1309 1356q0 -8 -4 -14t-15 -15l-686 -614l520 -660q10 -11 12.5 -17.5t2.5 -12.5q0 -21 -27 -27q-6 -2 -19.5 -3t-37.5 -1q-45 0 -66.5 8t-34.5 25l-499 649l-138 -647q-3 -16 -17.5 -25.5t-55.5 -9.5q-26 0 -40 2.5t-22 7.5q-10 7 -10 21q0 10 6 34l275 1289
q3 15 17.5 24.5t55.5 9.5q26 0 40 -2.5t22 -7.5q10 -8 10 -20q0 -11 -6 -35l-119 -557l649 598q8 7 16 11.5t20 7.5t29.5 4t43.5 1q23 0 40 -1.5t23 -4.5q15 -5 15 -18zM684 -92q0 -14 -7.5 -32t-19.5 -44l-96 -203q-6 -11 -11 -18t-12.5 -11t-19 -5t-29.5 -1q-28 0 -36.5 8
t-8.5 17q0 8 2.5 19t7.5 26l74 232q8 24 24.5 33.5t59.5 9.5q42 0 57 -9.5t15 -21.5z" />
    <glyph glyph-name="iogonek" unicode="&#x12f;" horiz-adv-x="408" 
d="M453 887q0 -5 -1 -11t-3 -14l-142 -659q-6 -29 -10 -57t-4 -42q0 -26 4 -41.5t4 -29.5q0 -11 -10.5 -17.5t-26.5 -11.5q-29 -18 -54.5 -40.5t-44.5 -48t-30.5 -55t-11.5 -61.5q0 -48 26.5 -77t69.5 -29q23 0 39 4.5t27 9.5q14 6 19.5 8t14.5 2q10 0 16.5 -7t14.5 -19
q8 -14 10 -20.5t2 -12.5q0 -8 -4 -13.5t-18 -13.5q-16 -9 -55.5 -23t-91.5 -14q-47 0 -83.5 13t-61 37t-37.5 57.5t-13 73.5q0 46 15 84t39.5 67t55 49.5t62.5 32.5q-2 3 -2 4q0 2 -2 4q-3 8 -5.5 23.5t-2.5 44.5q0 20 4 50t12 65l137 643q3 15 7.5 23.5t9.5 13.5
q8 8 20.5 12.5t26.5 7.5q15 3 26 4.5t25 1.5q27 0 27 -18zM551 1251q0 -46 -28.5 -75t-73.5 -29q-32 0 -54 21.5t-22 58.5q0 46 28 75t70 29q37 0 58.5 -21.5t21.5 -58.5z" />
    <glyph glyph-name="Iogonek" unicode="&#x12e;" horiz-adv-x="403" 
d="M553 1362q0 -5 -1 -11t-3 -14l-242 -1134q-6 -29 -10 -57t-4 -42q0 -26 4 -41.5t4 -29.5q0 -11 -10.5 -17.5t-26.5 -11.5q-29 -18 -54.5 -40.5t-44.5 -48t-30.5 -55t-11.5 -61.5q0 -48 26.5 -77t69.5 -29q23 0 39 4.5t27 9.5q14 6 19.5 8t14.5 2q10 0 16.5 -7t14.5 -19
q8 -14 10 -20.5t2 -12.5q0 -8 -4 -13.5t-18 -13.5q-16 -9 -55.5 -23t-91.5 -14q-47 0 -83.5 13t-61 37t-37.5 57.5t-13 73.5q0 46 15 84t39.5 67t55 49.5t62.5 32.5q-2 3 -2 4q0 2 -2 4q-3 8 -5.5 23.5t-2.5 44.5q0 20 4 50t12 65l238 1118q3 15 7 23.5t9 13.5
q8 8 20.5 12.5t26.5 7.5q16 3 26.5 4.5t24.5 1.5q27 0 27 -18z" />
    <glyph glyph-name="imacron" unicode="&#x12b;" horiz-adv-x="408" 
d="M453 887q0 -5 -1 -11t-3 -14l-142 -659q-6 -29 -10 -57t-4 -42q0 -26 4 -41.5t4 -29.5t-15.5 -21t-33.5 -12q-20 -5 -31 -6.5t-22 -1.5q-14 0 -21 6.5t-12 17.5q-3 8 -5.5 23.5t-2.5 44.5q0 20 4 50t12 65l137 643q3 15 7.5 23.5t9.5 13.5q8 8 20.5 12.5t26.5 7.5
q15 3 26 4.5t25 1.5q27 0 27 -18zM656 1107q-4 -21 -12 -34q-5 -8 -11.5 -10t-23.5 -2h-363q-9 0 -14 1t-8 3q-6 5 -7 9.5t-1 17.5q0 24 4 47.5t10 31.5t13.5 10.5t21.5 2.5h364q15 0 23 -4q6 -5 7 -11.5t1 -15.5q0 -25 -4 -46z" />
    <glyph glyph-name="Imacron" unicode="&#x12a;" horiz-adv-x="477" 
d="M598 1350q0 -11 -6 -35l-275 -1288q-3 -16 -17.5 -25.5t-55.5 -9.5q-26 0 -40 2.5t-22 7.5q-10 7 -10 21q0 10 6 34l275 1289q3 15 17.5 24.5t55.5 9.5q26 0 40 -2.5t22 -7.5q10 -8 10 -20zM787 1558q-4 -21 -12 -34q-5 -8 -11.5 -10t-23.5 -2h-363q-9 0 -14 1t-8 3
q-6 5 -7 9.5t-1 17.5q0 24 4 47.5t10 31.5t13.5 10.5t21.5 2.5h364q15 0 23 -4q6 -5 7 -11.5t1 -15.5q0 -25 -4 -46z" />
    <glyph glyph-name="gcedilla" unicode="&#x123;" horiz-adv-x="985" 
d="M952 1352q0 -13 -7.5 -27t-16.5 -31l-142 -262q-6 -12 -12.5 -19t-15.5 -10.5t-22 -4.5t-31 -1q-26 0 -33.5 6.5t-7.5 14.5t4 19t12 30l117 270q11 25 29.5 34t62.5 9q21 0 33 -2.5t19 -6.5t9 -9t2 -10zM872 739q-32 22 -83.5 41t-120.5 19q-60 0 -109 -16.5t-88.5 -47
t-71.5 -75t-57 -99.5q-23 -51 -35 -112.5t-12 -126.5q0 -40 9 -80.5t31.5 -72.5t60.5 -52.5t96 -20.5q43 0 81.5 17.5t71.5 47.5t61 70t50.5 85t38.5 92.5t26 91.5zM1014 801q0 -10 -2 -22t-4 -21l-156 -723q-18 -84 -36 -141t-37.5 -95t-41.5 -62.5t-47 -45.5
q-28 -24 -59.5 -42.5t-69.5 -31t-85 -19t-105 -6.5q-45 0 -84.5 5.5t-71 13t-54 15.5t-32.5 14q-17 9 -25 15.5t-8 18.5q0 10 4 21.5t15 30.5q11 18 18.5 24t20.5 6q9 0 26.5 -7t34.5 -13q8 -3 23.5 -8.5t37.5 -11t49.5 -9.5t59.5 -4q58 0 109 15t93.5 50t74.5 94t51 146
l28 129q-63 -81 -134 -119t-163 -38q-71 0 -124.5 26t-89.5 70.5t-54 102t-18 120.5q0 87 18 169.5t60 164.5q27 53 70 103.5t100.5 89.5t127.5 63t150 24q53 0 104 -9t93.5 -21.5t73.5 -27t44 -26.5q15 -11 15 -28z" />
    <glyph glyph-name="Gcedilla" unicode="&#x122;" horiz-adv-x="1266" 
d="M831 -92q0 -14 -7 -32t-19 -44l-96 -203q-6 -11 -11 -18t-12.5 -11t-19 -5t-29.5 -1q-28 0 -36.5 8t-8.5 17q0 8 2.5 19t7.5 26l74 232q8 24 24 33.5t60 9.5q42 0 56.5 -9.5t14.5 -21.5zM1335 1278q0 -9 -2.5 -19t-19.5 -34q-17 -25 -28.5 -33t-20.5 -8q-10 0 -16.5 3.5
t-12.5 6.5q-8 5 -30 16t-44 19q-29 11 -87.5 25t-139.5 14q-100 0 -185.5 -36t-153 -104.5t-115 -168.5t-70.5 -228q-4 -21 -7 -42t-5.5 -45t-3.5 -51.5t-1 -62.5q-1 -88 22 -166.5t68.5 -137t114 -92.5t158.5 -34q53 0 94 4t73 10t56 13.5t43 15.5l90 420h-268
q-17 0 -22 6.5t-5 14.5q0 6 2 15t4.5 18t5.5 16.5t5 11.5q9 22 20 31.5t33 9.5h342q29 0 38 -8.5t9 -18.5q0 -6 -1.5 -13.5l-4.5 -22.5l-109 -512q-6 -29 -20 -44.5t-45 -29.5q-72 -31 -161 -48.5t-202 -17.5q-114 0 -205.5 41.5t-156 114.5t-99.5 173.5t-34 217.5
q0 24 0.5 49.5t2.5 54.5t7 64t14 78q33 157 99.5 276t158 199t204 121t237.5 41q73 0 132.5 -11t103.5 -25t71.5 -28t36.5 -20q18 -13 24 -22t6 -17z" />
    <glyph glyph-name="ecaron" unicode="&#x11b;" horiz-adv-x="846" 
d="M778 698q0 21 -6.5 41.5t-22 36t-40.5 25.5t-62 10q-66 0 -122.5 -31.5t-101 -83t-74.5 -118t-42 -136.5q138 8 228.5 37t144.5 67t76 79t22 73zM907 707q0 -160 -152 -255.5t-456 -121.5q1 -56 18.5 -98.5t46.5 -71t66.5 -42.5t77.5 -14q59 0 107.5 15.5t76.5 27.5
q14 7 25 12t20 5q14 0 23.5 -11t17.5 -26q13 -26 13 -43q0 -5 -2 -10t-8 -11t-18 -13.5t-32 -16.5q-43 -20 -98 -36.5t-135 -16.5q-57 0 -111 15t-96 46q-57 40 -92 115t-35 178q0 57 12 125q18 94 59.5 176.5t102.5 144t139.5 97.5t171.5 36q68 0 117 -15.5t80.5 -42.5
t46 -65t14.5 -83zM1062 1327q0 -8 -5.5 -17.5t-25.5 -29.5l-233 -217q-18 -17 -29 -27.5t-21 -16t-19.5 -7.5t-24.5 -2q-16 0 -26.5 1.5t-18.5 7t-15.5 15.5t-17.5 27l-125 215q-14 25 -19.5 34t-5.5 17q0 12 11.5 17.5t46.5 5.5q31 0 49 -4.5t29 -24.5l102 -176l209 178
q8 7 15.5 12.5t15.5 9.5t19 5.5t26 1.5q35 0 49 -6.5t14 -18.5z" />
    <glyph glyph-name="Ecaron" unicode="&#x11a;" horiz-adv-x="1032" 
d="M1260 1352q0 -6 -2.5 -17t-6.5 -22t-7.5 -20t-4.5 -13q-9 -22 -20.5 -30.5t-32.5 -8.5h-617l-92 -428h545q17 0 22 -6t5 -14q0 -6 -2.5 -17t-6.5 -22t-7.5 -20t-4.5 -13q-9 -22 -20 -30.5t-33 -8.5h-524l-117 -551h645q17 0 22 -6t5 -14q0 -6 -2.5 -17t-6.5 -22t-7.5 -20
t-4.5 -13q-9 -22 -20 -30.5t-33 -8.5h-699q-29 0 -45 8t-16 27q0 8 1 16.5t3 18.5l264 1245q3 15 9 26t14 17t20 10t41 4h709q17 0 22 -6t5 -14zM1251 1778q0 -8 -5.5 -17.5t-25.5 -29.5l-233 -217q-18 -17 -29 -27.5t-21 -16t-19.5 -7.5t-24.5 -2q-16 0 -26.5 1.5t-18.5 7
t-15.5 15.5t-17.5 27l-125 215q-14 25 -19.5 34t-5.5 17q0 12 11.5 17.5t46.5 5.5q31 0 49 -4.5t29 -24.5l102 -176l209 178q8 7 15.5 12.5t15.5 9.5t19 5.5t26 1.5q35 0 49 -6.5t14 -18.5z" />
    <glyph glyph-name="eogonek" unicode="&#x119;" horiz-adv-x="846" 
d="M778 698q0 21 -6.5 41.5t-22 36t-40.5 25.5t-62 10q-66 0 -122.5 -31.5t-101 -83t-74.5 -118t-42 -136.5q138 8 228.5 37t144.5 67t76 79t22 73zM907 707q0 -160 -152 -255.5t-456 -121.5q1 -56 18.5 -98.5t46.5 -71t66.5 -42.5t77.5 -14q59 0 107.5 15.5t76.5 27.5
q14 7 25 12t20 5q14 0 23.5 -11t17.5 -26q13 -26 13 -43q0 -5 -2 -10t-8 -11t-18 -13.5t-32 -16.5q-38 -19 -86.5 -33.5t-116.5 -19.5q-46 -35 -77 -81t-31 -100q0 -48 26.5 -77t69.5 -29q23 0 39 4.5t27 9.5q14 6 19.5 8t14.5 2q10 0 16.5 -7t14.5 -19q8 -14 10 -20.5
t2 -12.5q0 -8 -4 -13.5t-18 -13.5q-16 -9 -55.5 -23t-92.5 -14q-47 0 -83 13t-60.5 37t-37.5 57.5t-13 73.5q0 37 10.5 69.5t27.5 59t40 48t49 36.5q-75 12 -131 53q-57 40 -92 115t-35 178q0 57 12 125q18 94 59.5 176.5t102.5 144t139.5 97.5t171.5 36q68 0 117 -15.5
t80.5 -42.5t46 -65t14.5 -83z" />
    <glyph glyph-name="Eogonek" unicode="&#x118;" horiz-adv-x="1032" 
d="M1260 1352q0 -6 -2.5 -17t-6.5 -22t-7.5 -20t-4.5 -13q-9 -22 -20.5 -30.5t-32.5 -8.5h-617l-92 -428h545q17 0 22 -6t5 -14q0 -6 -2.5 -17t-6.5 -22t-7.5 -20t-4.5 -13q-9 -22 -20 -30.5t-33 -8.5h-524l-117 -551h645q17 0 22 -6t5 -14q0 -6 -2.5 -17t-6.5 -22t-7.5 -20
t-4.5 -13q-9 -22 -20 -30.5t-33 -8.5h-47q-29 -18 -53.5 -39.5t-43.5 -47t-29.5 -54.5t-10.5 -60q0 -48 26 -77t70 -29q23 0 38.5 4.5t26.5 9.5q14 6 20 8t15 2t16 -7t15 -19q8 -14 10 -20.5t2 -12.5q0 -8 -4 -13.5t-18 -13.5q-16 -9 -55.5 -23t-92.5 -14q-47 0 -83 13
t-61 37t-37.5 57.5t-12.5 73.5q0 42 12.5 77t33.5 63.5t47.5 49.5t55.5 35h-539q-29 0 -45 8t-16 27q0 8 1 16.5t3 18.5l264 1245q3 15 9 26t14 17t20 10t41 4h709q17 0 22 -6t5 -14z" />
    <glyph glyph-name="edot" unicode="&#x117;" horiz-adv-x="846" 
d="M778 698q0 21 -6.5 41.5t-22 36t-40.5 25.5t-62 10q-66 0 -122.5 -31.5t-101 -83t-74.5 -118t-42 -136.5q138 8 228.5 37t144.5 67t76 79t22 73zM907 707q0 -160 -152 -255.5t-456 -121.5q1 -56 18.5 -98.5t46.5 -71t66.5 -42.5t77.5 -14q59 0 107.5 15.5t76.5 27.5
q14 7 25 12t20 5q14 0 23.5 -11t17.5 -26q13 -26 13 -43q0 -5 -2 -10t-8 -11t-18 -13.5t-32 -16.5q-43 -20 -98 -36.5t-135 -16.5q-57 0 -111 15t-96 46q-57 40 -92 115t-35 178q0 57 12 125q18 94 59.5 176.5t102.5 144t139.5 97.5t171.5 36q68 0 117 -15.5t80.5 -42.5
t46 -65t14.5 -83zM819 1118q0 -22 -7.5 -41.5t-21 -33.5t-31.5 -22.5t-39 -8.5q-19 0 -36.5 8.5t-30.5 22.5t-21 33.5t-8 41.5q0 47 27 78t69 31q20 0 38 -8.5t31.5 -23t21.5 -34.5t8 -43z" />
    <glyph glyph-name="Edot" unicode="&#x116;" horiz-adv-x="1032" 
d="M1260 1352q0 -6 -2.5 -17t-6.5 -22t-7.5 -20t-4.5 -13q-9 -22 -20.5 -30.5t-32.5 -8.5h-617l-92 -428h545q17 0 22 -6t5 -14q0 -6 -2.5 -17t-6.5 -22t-7.5 -20t-4.5 -13q-9 -22 -20 -30.5t-33 -8.5h-524l-117 -551h645q17 0 22 -6t5 -14q0 -6 -2.5 -17t-6.5 -22t-7.5 -20
t-4.5 -13q-9 -22 -20 -30.5t-33 -8.5h-699q-29 0 -45 8t-16 27q0 8 1 16.5t3 18.5l264 1245q3 15 9 26t14 17t20 10t41 4h709q17 0 22 -6t5 -14zM1004 1569q0 -22 -7.5 -41.5t-21 -33.5t-31.5 -22.5t-39 -8.5q-19 0 -36.5 8.5t-30.5 22.5t-21 33.5t-8 41.5q0 47 27 78t69 31
q20 0 38 -8.5t31.5 -23t21.5 -34.5t8 -43z" />
    <glyph glyph-name="emacron" unicode="&#x113;" horiz-adv-x="846" 
d="M778 698q0 21 -6.5 41.5t-22 36t-40.5 25.5t-62 10q-66 0 -122.5 -31.5t-101 -83t-74.5 -118t-42 -136.5q138 8 228.5 37t144.5 67t76 79t22 73zM907 707q0 -160 -152 -255.5t-456 -121.5q1 -56 18.5 -98.5t46.5 -71t66.5 -42.5t77.5 -14q59 0 107.5 15.5t76.5 27.5
q14 7 25 12t20 5q14 0 23.5 -11t17.5 -26q13 -26 13 -43q0 -5 -2 -10t-8 -11t-18 -13.5t-32 -16.5q-43 -20 -98 -36.5t-135 -16.5q-57 0 -111 15t-96 46q-57 40 -92 115t-35 178q0 57 12 125q18 94 59.5 176.5t102.5 144t139.5 97.5t171.5 36q68 0 117 -15.5t80.5 -42.5
t46 -65t14.5 -83zM942 1107q-4 -21 -12 -34q-5 -8 -11.5 -10t-23.5 -2h-363q-9 0 -14 1t-8 3q-6 5 -7 9.5t-1 17.5q0 24 4 47.5t10 31.5t13.5 10.5t21.5 2.5h364q15 0 23 -4q6 -5 7 -11.5t1 -15.5q0 -25 -4 -46z" />
    <glyph glyph-name="Emacron" unicode="&#x112;" horiz-adv-x="1032" 
d="M1260 1352q0 -6 -2.5 -17t-6.5 -22t-7.5 -20t-4.5 -13q-9 -22 -20.5 -30.5t-32.5 -8.5h-617l-92 -428h545q17 0 22 -6t5 -14q0 -6 -2.5 -17t-6.5 -22t-7.5 -20t-4.5 -13q-9 -22 -20 -30.5t-33 -8.5h-524l-117 -551h645q17 0 22 -6t5 -14q0 -6 -2.5 -17t-6.5 -22t-7.5 -20
t-4.5 -13q-9 -22 -20 -30.5t-33 -8.5h-699q-29 0 -45 8t-16 27q0 8 1 16.5t3 18.5l264 1245q3 15 9 26t14 17t20 10t41 4h709q17 0 22 -6t5 -14zM1128 1558q-4 -21 -12 -34q-5 -8 -11.5 -10t-23.5 -2h-363q-9 0 -14 1t-8 3q-6 5 -7 9.5t-1 17.5q0 24 4 47.5t10 31.5
t13.5 10.5t21.5 2.5h364q15 0 23 -4q6 -5 7 -11.5t1 -15.5q0 -25 -4 -46z" />
    <glyph glyph-name="Dmacron" unicode="&#x110;" horiz-adv-x="1311" 
d="M1223 866q0 190 -90.5 285.5t-268.5 95.5h-291l-102 -483h225q33 0 33 -16q0 -10 -4 -23t-10 -29q-8 -20 -19.5 -33.5t-40.5 -13.5h-209l-110 -524h301q80 0 154.5 25t139.5 71.5t118.5 112.5t92 148.5t60 179.5t21.5 204zM1382 881q0 -131 -29 -247t-80 -214
t-120.5 -176t-150.5 -132t-169.5 -83t-177.5 -29h-419q-29 0 -45.5 8t-16.5 27q0 8 1 16.5t3 18.5l123 579h-106q-33 0 -33 17q0 9 4 22t10 29q8 20 19.5 33.5t40.5 13.5h90l116 551q3 15 9 26t14 17t20 10t41 4h363q114 0 205.5 -30.5t155.5 -92t98 -153.5t34 -215z" />
    <glyph glyph-name="dcaron" unicode="&#x10f;" horiz-adv-x="1057" 
d="M877 739q-36 25 -86 42.5t-119 17.5q-60 0 -109 -16.5t-88.5 -47t-71.5 -75t-57 -99.5q-23 -51 -35 -112.5t-12 -126.5q0 -40 9 -80.5t31.5 -72.5t60.5 -52.5t96 -20.5q43 0 81.5 17.5t71.5 47.5t61 70t50.5 85t38.5 92.5t26 91.5zM1137 1362q0 -5 -1 -11t-3 -14
l-238 -1134q-6 -29 -10 -57t-4 -42q0 -26 4 -41.5t4 -29.5t-15.5 -21t-33.5 -12q-20 -5 -31.5 -6.5t-22.5 -1.5q-14 0 -19.5 7.5t-10.5 18.5q-3 8 -7 25.5t-4 34.5q0 14 1.5 33.5t3.5 31.5q-66 -85 -137.5 -124t-163.5 -39q-71 0 -124.5 26t-89.5 70.5t-54.5 102
t-18.5 120.5q0 87 18 169.5t60 164.5q27 53 70 103.5t99.5 89.5t125 63t145.5 24q37 0 71.5 -5.5t63 -13t49.5 -16t33 -14.5l98 453q3 15 7.5 23.5t9.5 13.5q8 8 20.5 12.5t26.5 7.5q15 3 26 4.5t25 1.5q27 0 27 -18zM1442 1352q0 -13 -7.5 -27t-16.5 -31l-142 -262
q-6 -12 -12.5 -19t-15.5 -10.5t-22 -4.5t-32 -1q-26 0 -33.5 6.5t-7.5 14.5t4.5 19t12.5 30l117 270q11 25 29.5 34t62.5 9q21 0 33 -2.5t19 -6.5t9 -9t2 -10z" />
    <glyph glyph-name="Dcaron" unicode="&#x10e;" horiz-adv-x="1311" 
d="M1223 866q0 190 -90.5 285.5t-268.5 95.5h-291l-237 -1122h301q80 0 154.5 25t139.5 71.5t118.5 112.5t92 148.5t60 179.5t21.5 204zM1382 881q0 -131 -29 -247t-80 -214t-120.5 -176t-150.5 -132t-169.5 -83t-177.5 -29h-419q-29 0 -45.5 8t-16.5 27q0 8 1 16.5t3 18.5
l264 1245q3 15 9 26t14 17t20 10t41 4h363q114 0 205.5 -30.5t155.5 -92t98 -153.5t34 -215zM1253 1778q0 -8 -5.5 -17.5t-25.5 -29.5l-233 -217q-18 -17 -29 -27.5t-21 -16t-19.5 -7.5t-24.5 -2q-16 0 -26.5 1.5t-18.5 7t-15.5 15.5t-17.5 27l-125 215q-14 25 -19.5 34
t-5.5 17q0 12 11.5 17.5t46.5 5.5q31 0 49 -4.5t29 -24.5l102 -176l209 178q8 7 15.5 12.5t15.5 9.5t19 5.5t26 1.5q35 0 49 -6.5t14 -18.5z" />
    <glyph glyph-name="ccircumflex" unicode="&#x109;" horiz-adv-x="774" 
d="M897 823q0 -17 -18 -45q-10 -15 -20.5 -28t-24.5 -13q-13 0 -24.5 6t-33.5 17q-23 12 -56.5 21.5t-90.5 9.5q-61 0 -120 -31t-105.5 -88.5t-75.5 -138t-29 -179.5q0 -57 14 -103t40 -78.5t63 -49.5t82 -17q49 0 88 9t65 20q28 11 46.5 21t33.5 10q16 0 24.5 -14t16.5 -29
q6 -14 9 -24t3 -21t-10.5 -20.5t-48.5 -26.5q-43 -19 -102 -35t-131 -16q-79 0 -140.5 25.5t-103.5 72t-64 113t-22 147.5q0 140 45 247.5t115.5 180t156.5 110t168 37.5q72 0 117 -11t82 -30q35 -17 43 -29t8 -20zM976 1034q0 -12 -11 -17t-46 -5q-31 0 -49 4t-29 24
l-102 177l-209 -179q-9 -8 -16 -13t-15.5 -8.5t-19 -5t-25.5 -1.5q-35 0 -49 6t-14 18q0 8 5 17.5t25 29.5l234 217q18 17 29 27.5t21 16.5t19.5 8t24.5 2q16 0 26.5 -1.5t18.5 -7t15.5 -16t17.5 -27.5l125 -215q14 -24 19 -33.5t5 -17.5z" />
    <glyph glyph-name="Ccircumflex" unicode="&#x108;" horiz-adv-x="1051" 
d="M1276 1290q0 -8 -3.5 -19.5t-17.5 -33.5q-14 -23 -24 -32t-23 -9q-11 0 -39.5 12.5t-66.5 26.5q-35 12 -84.5 23.5t-120.5 11.5q-58 0 -119.5 -19.5t-120 -60t-110.5 -101t-91 -143t-62 -187t-23 -231.5q0 -213 93 -317.5t259 -104.5q46 0 85.5 5.5t70 12.5t52.5 14.5
t34 11.5q20 8 35.5 14t27.5 6t21.5 -6t21.5 -31q8 -17 11 -31.5t3 -25.5q0 -14 -12.5 -25.5t-52.5 -25.5q-50 -19 -126 -36.5t-189 -17.5q-111 0 -201.5 36t-155 106t-100 174t-35.5 241q0 138 27 251t69 201.5t92.5 152.5t96.5 106q89 81 198.5 121.5t218.5 40.5
q62 0 113 -7t90.5 -17.5t67.5 -21.5t43 -20q26 -14 36.5 -24t10.5 -21zM1255 1485q0 -12 -11 -17t-46 -5q-31 0 -49 4t-29 24l-102 177l-209 -179q-9 -8 -16 -13t-15.5 -8.5t-19 -5t-25.5 -1.5q-35 0 -49 6t-14 18q0 8 5 17.5t25 29.5l234 217q18 17 29 27.5t21 16.5t19.5 8
t24.5 2q16 0 26.5 -1.5t18.5 -7t15.5 -16t17.5 -27.5l125 -215q14 -24 19 -33.5t5 -17.5z" />
    <glyph glyph-name="aogonek" unicode="&#x105;" horiz-adv-x="991" 
d="M877 739q-36 25 -86 42.5t-119 17.5q-60 0 -109 -16.5t-88.5 -47t-71.5 -75t-57 -99.5q-23 -51 -35 -112.5t-12 -126.5q0 -40 9 -80.5t31.5 -72.5t60.5 -52.5t96 -20.5q43 0 81.5 17.5t71.5 47.5t61 70t50.5 85t38.5 92.5t26 91.5zM1018 801q0 -10 -2 -22t-4 -21
l-117 -555q-6 -29 -10 -57t-4 -42q0 -26 4 -41.5t4 -29.5q0 -13 -13 -19.5t-30 -11.5q-29 -18 -54 -40.5t-44 -48t-30 -54.5t-11 -60q0 -48 26 -77t70 -29q23 0 38.5 4.5t26.5 9.5q14 6 20 8t15 2t16 -7t15 -19q8 -14 10 -20.5t2 -12.5q0 -8 -4 -13.5t-18 -13.5
q-16 -9 -55.5 -23t-92.5 -14q-47 0 -83 13t-61 37t-37.5 57.5t-12.5 73.5q0 48 15.5 86.5t41 68t57.5 50t64 32.5l-4 6q-3 8 -7 25.5t-4 34.5q0 14 1.5 33.5t3.5 31.5q-66 -85 -137.5 -124t-163.5 -39q-71 0 -124.5 26t-89.5 70.5t-54.5 102t-18.5 120.5q0 87 18 169.5
t60 164.5q27 53 70 103.5t100.5 89.5t127.5 63t150 24q53 0 104 -9t93.5 -21.5t74 -27t44.5 -26.5q14 -11 14 -28z" />
    <glyph glyph-name="Aogonek" unicode="&#x104;" horiz-adv-x="1108" 
d="M813 1233l-387 -719h471zM1161 -342q0 -8 -4 -13.5t-18 -13.5q-16 -9 -55.5 -23t-92.5 -14q-47 0 -83 13t-61 37t-37.5 57.5t-12.5 73.5q0 45 14.5 82.5t38 66.5t53.5 50t62 34q-10 9 -13 35l-41 352h-549l-190 -354q-8 -14 -14 -24t-13 -13q-9 -6 -21.5 -9t-41.5 -3
q-37 0 -51.5 7.5t-14.5 18.5q0 7 4.5 16.5t10.5 20.5l719 1288q7 12 13 20t15.5 13t24 7.5t37.5 2.5q27 0 42.5 -2.5t24.5 -8.5t13 -15.5t6 -24.5l174 -1267q2 -13 3 -23.5t1 -19.5q0 -14 -11.5 -22.5t-45.5 -10.5q-53 -35 -89 -84t-36 -109q0 -48 26.5 -77t69.5 -29
q23 0 38.5 4.5t26.5 9.5q14 6 20 8t15 2t16 -7t15 -19q8 -14 10 -20.5t2 -12.5z" />
    <glyph glyph-name="abreve" unicode="&#x103;" horiz-adv-x="991" 
d="M877 739q-36 25 -86 42.5t-119 17.5q-60 0 -109 -16.5t-88.5 -47t-71.5 -75t-57 -99.5q-23 -51 -35 -112.5t-12 -126.5q0 -40 9 -80.5t31.5 -72.5t60.5 -52.5t96 -20.5q43 0 81.5 17.5t71.5 47.5t61 70t50.5 85t38.5 92.5t26 91.5zM1018 801q0 -10 -2 -22t-4 -21
l-117 -555q-6 -29 -10 -57t-4 -42q0 -26 4 -41.5t4 -29.5t-15.5 -21t-33.5 -12q-20 -5 -31.5 -6.5t-22.5 -1.5q-14 0 -19.5 7.5t-10.5 18.5q-3 8 -7 25.5t-4 34.5q0 14 1.5 33.5t3.5 31.5q-66 -85 -137.5 -124t-163.5 -39q-71 0 -124.5 26t-89.5 70.5t-54.5 102t-18.5 120.5
q0 87 18 169.5t60 164.5q27 53 70 103.5t100.5 89.5t127.5 63t150 24q53 0 104 -9t93.5 -21.5t74 -27t44.5 -26.5q14 -11 14 -28zM1032 1264q0 -17 -7.5 -42.5t-23 -53.5t-39 -55.5t-55 -50t-71 -36.5t-87.5 -14q-68 0 -108.5 20t-62.5 49.5t-29 62.5t-7 60q0 14 0.5 28.5
t3.5 27.5q4 17 15.5 23.5t40.5 6.5q34 0 42.5 -7t8.5 -26q1 -25 5 -48t15.5 -40.5t32 -28t53.5 -10.5t58.5 11t44.5 29t32.5 40.5t22.5 44.5q7 20 19 27.5t47 7.5q28 0 38.5 -7t10.5 -19z" />
    <glyph glyph-name="Abreve" unicode="&#x102;" horiz-adv-x="1108" 
d="M813 1233l-387 -719h471zM1104 25q0 -16 -15.5 -24.5t-58.5 -8.5q-34 0 -45.5 3.5t-17.5 8.5q-5 5 -9 13.5t-6 25.5l-41 352h-549l-190 -354q-8 -14 -14 -24t-13 -13q-9 -6 -21.5 -9t-41.5 -3q-37 0 -51.5 7.5t-14.5 18.5q0 7 4.5 16.5t10.5 20.5l719 1288q7 12 13 20
t15.5 13t24 7.5t37.5 2.5q27 0 42.5 -2.5t24.5 -8.5t13 -15.5t6 -24.5l174 -1267q2 -13 3 -23.5t1 -19.5zM1129 1715q0 -17 -7.5 -42.5t-23 -53.5t-39 -55.5t-55 -50t-71 -36.5t-87.5 -14q-68 0 -108.5 20t-62.5 49.5t-29 62.5t-7 60q0 14 0.5 28.5t3.5 27.5q4 17 15.5 23.5
t40.5 6.5q34 0 42.5 -7t8.5 -26q1 -25 5 -48t15.5 -40.5t32 -28t53.5 -10.5t58.5 11t44.5 29t32.5 40.5t22.5 44.5q7 20 19 27.5t47 7.5q28 0 38.5 -7t10.5 -19z" />
    <glyph glyph-name="amacron" unicode="&#x101;" horiz-adv-x="991" 
d="M877 739q-36 25 -86 42.5t-119 17.5q-60 0 -109 -16.5t-88.5 -47t-71.5 -75t-57 -99.5q-23 -51 -35 -112.5t-12 -126.5q0 -40 9 -80.5t31.5 -72.5t60.5 -52.5t96 -20.5q43 0 81.5 17.5t71.5 47.5t61 70t50.5 85t38.5 92.5t26 91.5zM1018 801q0 -10 -2 -22t-4 -21
l-117 -555q-6 -29 -10 -57t-4 -42q0 -26 4 -41.5t4 -29.5t-15.5 -21t-33.5 -12q-20 -5 -31.5 -6.5t-22.5 -1.5q-14 0 -19.5 7.5t-10.5 18.5q-3 8 -7 25.5t-4 34.5q0 14 1.5 33.5t3.5 31.5q-66 -85 -137.5 -124t-163.5 -39q-71 0 -124.5 26t-89.5 70.5t-54.5 102t-18.5 120.5
q0 87 18 169.5t60 164.5q27 53 70 103.5t100.5 89.5t127.5 63t150 24q53 0 104 -9t93.5 -21.5t74 -27t44.5 -26.5q14 -11 14 -28zM954 1107q-4 -21 -12 -34q-5 -8 -11.5 -10t-23.5 -2h-363q-9 0 -14 1t-8 3q-6 5 -7 9.5t-1 17.5q0 24 4 47.5t10 31.5t13.5 10.5t21.5 2.5h364
q15 0 23 -4q6 -5 7 -11.5t1 -15.5q0 -25 -4 -46z" />
    <glyph glyph-name="Amacron" unicode="&#x100;" horiz-adv-x="1108" 
d="M813 1233l-387 -719h471zM1104 25q0 -16 -15.5 -24.5t-58.5 -8.5q-34 0 -45.5 3.5t-17.5 8.5q-5 5 -9 13.5t-6 25.5l-41 352h-549l-190 -354q-8 -14 -14 -24t-13 -13q-9 -6 -21.5 -9t-41.5 -3q-37 0 -51.5 7.5t-14.5 18.5q0 7 4.5 16.5t10.5 20.5l719 1288q7 12 13 20
t15.5 13t24 7.5t37.5 2.5q27 0 42.5 -2.5t24.5 -8.5t13 -15.5t6 -24.5l174 -1267q2 -13 3 -23.5t1 -19.5zM1081 1558q-4 -21 -12 -34q-5 -8 -11.5 -10t-23.5 -2h-363q-9 0 -14 1t-8 3q-6 5 -7 9.5t-1 17.5q0 24 4 47.5t10 31.5t13.5 10.5t21.5 2.5h364q15 0 23 -4
q6 -5 7 -11.5t1 -15.5q0 -25 -4 -46z" />
    <glyph glyph-name="dmacron" unicode="&#x111;" horiz-adv-x="989" 
d="M877 739q-36 25 -86 42.5t-119 17.5q-60 0 -109 -16.5t-88.5 -47t-71.5 -75t-57 -99.5q-23 -51 -35 -112.5t-12 -126.5q0 -40 9 -80.5t31.5 -72.5t60.5 -52.5t96 -20.5q43 0 81.5 17.5t71.5 47.5t61 70t50.5 85t38.5 92.5t26 91.5zM1192 1153q0 -25 -4 -46t-12 -34
q-5 -8 -11.5 -10t-23.5 -2h-66l-180 -858q-6 -29 -10 -57t-4 -42q0 -26 4 -41.5t4 -29.5t-15.5 -21t-33.5 -12q-20 -5 -31.5 -6.5t-22.5 -1.5q-14 0 -19.5 7.5t-10.5 18.5q-3 8 -7 25.5t-4 34.5q0 14 1.5 33.5t3.5 31.5q-66 -85 -137.5 -124t-163.5 -39q-71 0 -124.5 26
t-89.5 70.5t-54.5 102t-18.5 120.5q0 87 18 169.5t60 164.5q27 53 70 103.5t99.5 89.5t125 63t145.5 24q37 0 71.5 -5.5t63 -13t49.5 -16t33 -14.5l43 197h-162q-9 0 -14 1t-8 3q-6 5 -7 9.5t-1 17.5q0 24 4 47.5t10 31.5t13.5 10.5t21.5 2.5h170l28 133q3 15 7.5 23.5
t9.5 13.5q8 8 20.5 12.5t26.5 7.5q15 3 26 4.5t25 1.5q27 0 27 -18q0 -5 -1 -11t-3 -14l-33 -153h61q15 0 23 -4q6 -5 7 -11.5t1 -15.5z" />
    <glyph glyph-name="ccaron" unicode="&#x10d;" horiz-adv-x="774" 
d="M897 823q0 -17 -18 -45q-10 -15 -20.5 -28t-24.5 -13q-13 0 -24.5 6t-33.5 17q-23 12 -56.5 21.5t-90.5 9.5q-61 0 -120 -31t-105.5 -88.5t-75.5 -138t-29 -179.5q0 -57 14 -103t40 -78.5t63 -49.5t82 -17q49 0 88 9t65 20q28 11 46.5 21t33.5 10q16 0 24.5 -14t16.5 -29
q6 -14 9 -24t3 -21t-10.5 -20.5t-48.5 -26.5q-43 -19 -102 -35t-131 -16q-79 0 -140.5 25.5t-103.5 72t-64 113t-22 147.5q0 140 45 247.5t115.5 180t156.5 110t168 37.5q72 0 117 -11t82 -30q35 -17 43 -29t8 -20zM1039 1327q0 -8 -5.5 -17.5t-25.5 -29.5l-233 -217
q-18 -17 -29 -27.5t-21 -16t-19.5 -7.5t-24.5 -2q-16 0 -26.5 1.5t-18.5 7t-15.5 15.5t-17.5 27l-125 215q-14 25 -19.5 34t-5.5 17q0 12 11.5 17.5t46.5 5.5q31 0 49 -4.5t29 -24.5l102 -176l209 178q8 7 15.5 12.5t15.5 9.5t19 5.5t26 1.5q35 0 49 -6.5t14 -18.5z" />
    <glyph glyph-name="Ccaron" unicode="&#x10c;" horiz-adv-x="1051" 
d="M1276 1290q0 -8 -3.5 -19.5t-17.5 -33.5q-14 -23 -24 -32t-23 -9q-11 0 -39.5 12.5t-66.5 26.5q-35 12 -84.5 23.5t-120.5 11.5q-58 0 -119.5 -19.5t-120 -60t-110.5 -101t-91 -143t-62 -187t-23 -231.5q0 -213 93 -317.5t259 -104.5q46 0 85.5 5.5t70 12.5t52.5 14.5
t34 11.5q20 8 35.5 14t27.5 6t21.5 -6t21.5 -31q8 -17 11 -31.5t3 -25.5q0 -14 -12.5 -25.5t-52.5 -25.5q-50 -19 -126 -36.5t-189 -17.5q-111 0 -201.5 36t-155 106t-100 174t-35.5 241q0 138 27 251t69 201.5t92.5 152.5t96.5 106q89 81 198.5 121.5t218.5 40.5
q62 0 113 -7t90.5 -17.5t67.5 -21.5t43 -20q26 -14 36.5 -24t10.5 -21zM1296 1778q0 -8 -5.5 -17.5t-25.5 -29.5l-233 -217q-18 -17 -29 -27.5t-21 -16t-19.5 -7.5t-24.5 -2q-16 0 -26.5 1.5t-18.5 7t-15.5 15.5t-17.5 27l-125 215q-14 25 -19.5 34t-5.5 17q0 12 11.5 17.5
t46.5 5.5q31 0 49 -4.5t29 -24.5l102 -176l209 178q8 7 15.5 12.5t15.5 9.5t19 5.5t26 1.5q35 0 49 -6.5t14 -18.5z" />
    <glyph glyph-name="cacute" unicode="&#x107;" horiz-adv-x="774" 
d="M897 823q0 -17 -18 -45q-10 -15 -20.5 -28t-24.5 -13q-13 0 -24.5 6t-33.5 17q-23 12 -56.5 21.5t-90.5 9.5q-61 0 -120 -31t-105.5 -88.5t-75.5 -138t-29 -179.5q0 -57 14 -103t40 -78.5t63 -49.5t82 -17q49 0 88 9t65 20q28 11 46.5 21t33.5 10q16 0 24.5 -14t16.5 -29
q6 -14 9 -24t3 -21t-10.5 -20.5t-48.5 -26.5q-43 -19 -102 -35t-131 -16q-79 0 -140.5 25.5t-103.5 72t-64 113t-22 147.5q0 140 45 247.5t115.5 180t156.5 110t168 37.5q72 0 117 -11t82 -30q35 -17 43 -29t8 -20zM908 1321q0 -11 -8.5 -25.5t-28.5 -42.5l-139 -200
q-6 -8 -13.5 -16.5t-15.5 -14.5q-8 -5 -19 -7.5t-36 -2.5q-32 0 -42.5 5.5t-10.5 16.5q0 8 5 19.5t13 25.5l125 234q14 25 37 32t65 7q39 0 53.5 -8.5t14.5 -22.5z" />
    <glyph glyph-name="Cacute" unicode="&#x106;" horiz-adv-x="1051" 
d="M1276 1290q0 -8 -3.5 -19.5t-17.5 -33.5q-14 -23 -24 -32t-23 -9q-11 0 -39.5 12.5t-66.5 26.5q-35 12 -84.5 23.5t-120.5 11.5q-58 0 -119.5 -19.5t-120 -60t-110.5 -101t-91 -143t-62 -187t-23 -231.5q0 -213 93 -317.5t259 -104.5q46 0 85.5 5.5t70 12.5t52.5 14.5
t34 11.5q20 8 35.5 14t27.5 6t21.5 -6t21.5 -31q8 -17 11 -31.5t3 -25.5q0 -14 -12.5 -25.5t-52.5 -25.5q-50 -19 -126 -36.5t-189 -17.5q-111 0 -201.5 36t-155 106t-100 174t-35.5 241q0 138 27 251t69 201.5t92.5 152.5t96.5 106q89 81 198.5 121.5t218.5 40.5
q62 0 113 -7t90.5 -17.5t67.5 -21.5t43 -20q26 -14 36.5 -24t10.5 -21zM1188 1772q0 -11 -8.5 -25.5t-28.5 -42.5l-139 -200q-6 -8 -13.5 -16.5t-15.5 -14.5q-8 -5 -19 -7.5t-36 -2.5q-32 0 -42.5 5.5t-10.5 16.5q0 8 5 19.5t13 25.5l125 234q14 25 37 32t65 7
q39 0 53.5 -8.5t14.5 -22.5z" />
    <glyph glyph-name="scedilla" unicode="&#x15f;" horiz-adv-x="774" 
d="M821 827q0 -9 -3 -18.5t-11 -26.5q-8 -14 -15 -24t-26 -10q-16 0 -31 6.5t-41 17.5q-32 12 -80 23.5t-114 11.5q-40 0 -74.5 -9t-60 -27t-40 -44.5t-14.5 -60.5q0 -57 38.5 -88.5t109.5 -53.5l80 -24q41 -13 82 -30t73.5 -43.5t53 -64t20.5 -92.5q0 -73 -28 -127.5
t-76.5 -90.5t-114 -54t-141.5 -18q-66 0 -118.5 9t-90.5 20.5t-61 23t-32 16.5q-18 11 -25 19.5t-7 17.5q0 8 4.5 21t15.5 28q14 19 21.5 23t21.5 4q13 0 30 -10t34 -19q8 -5 27 -12.5t45.5 -14.5t59.5 -12.5t70 -5.5q52 0 94 10.5t72 31t46 51t16 69.5q0 55 -42 87.5
t-118 55.5l-82 25q-42 12 -79.5 31.5t-65.5 47t-44 64t-16 82.5q0 67 26 117.5t71 84.5t105 51t128 17q51 0 91.5 -4.5t72.5 -11t56.5 -15t43.5 -16.5q28 -11 35.5 -20t7.5 -19zM477 -92q0 -14 -7.5 -32t-19.5 -44l-96 -203q-6 -11 -11 -18t-12.5 -11t-19 -5t-29.5 -1
q-28 0 -36.5 8t-8.5 17q0 8 2.5 19t7.5 26l74 232q8 24 24.5 33.5t59.5 9.5q42 0 57 -9.5t15 -21.5z" />
    <glyph glyph-name="scedilla" unicode="&#xf6c2;" horiz-adv-x="774" 
d="M821 827q0 -9 -3 -18.5t-11 -26.5q-8 -14 -15 -24t-26 -10q-16 0 -31 6.5t-41 17.5q-32 12 -80 23.5t-114 11.5q-40 0 -74.5 -9t-60 -27t-40 -44.5t-14.5 -60.5q0 -57 38.5 -88.5t109.5 -53.5l80 -24q41 -13 82 -30t73.5 -43.5t53 -64t20.5 -92.5q0 -73 -28 -127.5
t-76.5 -90.5t-114 -54t-141.5 -18q-66 0 -118.5 9t-90.5 20.5t-61 23t-32 16.5q-18 11 -25 19.5t-7 17.5q0 8 4.5 21t15.5 28q14 19 21.5 23t21.5 4q13 0 30 -10t34 -19q8 -5 27 -12.5t45.5 -14.5t59.5 -12.5t70 -5.5q52 0 94 10.5t72 31t46 51t16 69.5q0 55 -42 87.5
t-118 55.5l-82 25q-42 12 -79.5 31.5t-65.5 47t-44 64t-16 82.5q0 67 26 117.5t71 84.5t105 51t128 17q51 0 91.5 -4.5t72.5 -11t56.5 -15t43.5 -16.5q28 -11 35.5 -20t7.5 -19zM477 -92q0 -14 -7.5 -32t-19.5 -44l-96 -203q-6 -11 -11 -18t-12.5 -11t-19 -5t-29.5 -1
q-28 0 -36.5 8t-8.5 17q0 8 2.5 19t7.5 26l74 232q8 24 24.5 33.5t59.5 9.5q42 0 57 -9.5t15 -21.5z" />
    <glyph glyph-name="Scedilla" unicode="&#x15e;" horiz-adv-x="1040" 
d="M1159 1280q0 -19 -20 -53q-13 -20 -21 -28.5t-20 -8.5q-11 0 -19.5 3.5t-19.5 8.5q-35 16 -66.5 29t-67.5 22t-79.5 14t-102.5 5q-60 0 -119.5 -15.5t-106.5 -48t-76 -82.5t-29 -118q0 -42 14 -76t39 -60t60.5 -44.5t78.5 -30.5l182 -54q64 -18 114 -46t85.5 -67t54 -90
t19.5 -116q0 -84 -20 -150t-56 -116.5t-85.5 -86t-106.5 -58t-119 -32.5t-125 -10q-89 0 -159 13.5t-121.5 32.5t-85.5 39.5t-52 33.5q-22 16 -29.5 26t-7.5 19q0 8 3 19.5t16 29.5q14 20 26.5 32.5t26.5 12.5t29.5 -10t35.5 -24q14 -10 41.5 -26t66.5 -31t89 -25.5
t109 -10.5q64 0 130 13t120 46t88 89t34 143t-50 140t-144 79l-158 45q-139 41 -213 115.5t-74 196.5q0 111 43 192t113.5 134t160 78.5t181.5 25.5q118 0 204.5 -22.5t151.5 -57.5q16 -9 26.5 -18t10.5 -21zM612 -92q0 -14 -7.5 -32t-19.5 -44l-96 -203q-6 -11 -11 -18
t-12.5 -11t-19 -5t-29.5 -1q-28 0 -36.5 8t-8.5 17q0 8 2.5 19t7.5 26l74 232q8 24 24.5 33.5t59.5 9.5q42 0 57 -9.5t15 -21.5z" />
    </font>
</defs>
</svg>
