<?xml version="1.0" standalone="no"?>
<!DOCTYPE svg PUBLIC "-//W3C//DTD SVG 1.1//EN" "http://www.w3.org/Graphics/SVG/1.1/DTD/svg11.dtd" >
<svg xmlns="http://www.w3.org/2000/svg" xmlns:xlink="http://www.w3.org/1999/xlink" version="1.1">
<metadata>
Created by FontForge 20201107 at Tue Dec 18 11:36:21 2001
 By Jimmy Wärting
(c)  Dalton Maag Ltd 2001. For use with TUI related projects only. No modification of this font permitted without consent and approval of Dalton Maag Ltd.
</metadata>
<defs>
<font id="TUITypeLight-Bold" horiz-adv-x="1008" >
  <font-face 
    font-family="TUITypeLight"
    font-weight="700"
    font-stretch="normal"
    units-per-em="2048"
    panose-1="2 11 6 4 3 2 2 2 2 3"
    ascent="1638"
    descent="-410"
    x-height="893"
    cap-height="1380"
    bbox="-408 -406 2329 1854"
    underline-thickness="102"
    underline-position="-289"
    unicode-range="U+0020-FB02"
  />
<missing-glyph horiz-adv-x="2048" 
 />
    <glyph glyph-name=".notdef" horiz-adv-x="2048" 
 />
    <glyph glyph-name=".null" horiz-adv-x="0" 
 />
    <glyph glyph-name="nonmarkingreturn" horiz-adv-x="1024" 
 />
    <glyph glyph-name="space" unicode=" " horiz-adv-x="512" 
 />
    <glyph glyph-name="exclam" unicode="!" horiz-adv-x="471" 
d="M387 127q0 -30 -12.5 -56.5t-33.5 -46t-48 -31t-57 -11.5q-31 0 -58.5 11.5t-48.5 31t-33 46t-12 56.5q0 29 12 55.5t32 47t47.5 32.5t57.5 12t58 -11.5t49 -32t34 -47t13 -56.5zM352 463q0 -20 -3.5 -29.5t-12.5 -17.5q-11 -8 -34.5 -14.5t-65.5 -6.5t-65.5 5.5
t-33.5 13.5q-9 8 -13.5 18.5t-4.5 30.5v850q0 20 4.5 30.5t13.5 18.5q10 8 33.5 13t65.5 5t65.5 -5t32.5 -13t13.5 -17.5t4.5 -29.5v-852z" />
    <glyph glyph-name="quotedbl" unicode="&#x22;" horiz-adv-x="809" 
d="M332 946q0 -20 -2.5 -29.5t-12.5 -17.5q-11 -8 -33.5 -14t-62.5 -6q-37 0 -60 5t-32 13t-12.5 18.5t-3.5 30.5l-13 367q0 21 4.5 31t14.5 18q9 8 33 13t69 5q47 0 71 -5t34 -13q9 -8 13.5 -17.5t4.5 -29.5zM694 946q0 -20 -2.5 -29.5t-11.5 -17.5q-11 -8 -33.5 -14
t-62.5 -6q-37 0 -60 5t-32 13q-10 8 -13.5 18.5t-3.5 30.5l-12 367q0 21 4.5 31t13.5 18q10 8 34 13t69 5q46 0 70.5 -5t33.5 -13t14 -17.5t5 -29.5z" />
    <glyph glyph-name="numbersign" unicode="#" horiz-adv-x="1245" 
d="M557 793l-76 -273h205l76 273h-205zM1200 877q-12 -48 -27.5 -66t-46.5 -18h-165l-76 -273h145q33 0 43 -10q9 -8 11.5 -24t-7.5 -50q-12 -48 -27.5 -66t-45.5 -18h-168l-78 -286q-6 -20 -13.5 -32.5t-15.5 -17.5q-12 -8 -27.5 -12t-50.5 -4t-50 3t-26 9q-18 9 -18 31
q0 11 3 24t9 33l70 252h-205l-80 -286q-12 -41 -28 -50q-11 -8 -26 -12t-50 -4q-37 0 -52 3t-26 9q-18 9 -18 31q0 11 3 24t9 33l70 252h-144q-17 0 -27 2.5t-16 7.5q-11 8 -12.5 25.5t10.5 58.5q11 41 25 57.5t45 16.5h168l75 273h-145q-17 0 -27 2.5t-16 7.5
q-11 8 -12.5 25t10.5 59q11 40 25 57t45 17h168l73 266q13 41 29 49q10 7 25.5 11.5t50.5 4.5q37 0 52 -3t26 -9q18 -9 18 -31q0 -11 -3 -24t-9 -33l-66 -231h205l74 266q12 39 28 49q13 8 28 12t50 4t50 -3t26 -9q18 -9 18 -31q0 -11 -3 -24t-9 -33l-63 -231h145
q16 0 25.5 -3t17.5 -8q9 -6 11 -22.5t-7 -50.5z" />
    <glyph glyph-name="dollar" unicode="$" horiz-adv-x="1110" 
d="M791 344q0 30 -7.5 54.5t-27 45.5t-54 39.5t-88.5 36.5v-336q39 6 71.5 18.5t56 32t36.5 46.5t13 63zM498 1094q-91 -11 -133.5 -55t-42.5 -107q0 -30 13.5 -53.5t37 -42.5t55.5 -33t68 -25zM1020 373q0 -81 -25.5 -148.5t-76.5 -118.5t-126.5 -82.5t-175.5 -39.5v-119
q0 -12 -2 -20t-8 -13t-17.5 -7.5t-31.5 -2.5q-21 0 -32.5 2.5t-17.5 7.5t-7.5 13t-1.5 20v115q-74 3 -133 14.5t-105.5 27.5t-81 34.5t-59.5 35.5q-23 16 -31 27t-8 20q0 20 9.5 42.5t23.5 43.5q15 23 30 39.5t33 16.5q13 0 22 -3.5t21 -9.5q25 -12 52 -26t60 -26.5
t73.5 -23t93.5 -14.5v373l-52 14q-72 20 -136 48t-112 69.5t-76 99.5t-28 138q0 75 26 139.5t77 113.5t126 79t173 36v103q0 11 2 19t8 13.5t17.5 8t31.5 2.5q21 0 32.5 -2.5t17.5 -8t7.5 -13.5t1.5 -19v-103q74 -5 117.5 -15t69.5 -18q34 -11 57.5 -22t38.5 -19
q28 -15 37.5 -26.5t9.5 -24.5q0 -17 -10 -41t-23 -47q-14 -25 -25 -37t-28 -12q-20 0 -37 7.5t-37 15.5q-32 12 -70.5 25t-99.5 20v-344l21 -7q75 -22 145 -49t123 -68.5t85 -102t32 -150.5z" />
    <glyph glyph-name="percent" unicode="%" horiz-adv-x="1628" 
d="M512 1059q0 80 -35 127t-98 47q-60 0 -96.5 -47t-36.5 -127q0 -81 35 -128.5t98 -47.5q60 0 96.5 47.5t36.5 128.5zM1382 317q0 81 -35 128t-98 47q-60 0 -96.5 -47t-36.5 -128q0 -80 35 -128t98 -48q30 0 54.5 12.5t42 35.5t27 55.5t9.5 72.5zM711 1059q0 -77 -25 -140
t-69 -108t-105 -69.5t-133 -24.5t-133 24.5t-105.5 69t-69 107.5t-24.5 141q0 77 24.5 140t69 108t105.5 69.5t133 24.5q71 0 132 -24.5t105.5 -69t69.5 -107.5t25 -141zM1276 1356q0 -13 -6.5 -29t-20.5 -41l-669 -1243q-8 -15 -17 -28t-18 -19q-13 -8 -32 -12t-56 -4
t-56 4.5t-30 9.5t-16 13t-5 18q0 12 6.5 28t20.5 41l670 1243q8 16 16.5 28.5t17.5 18.5q13 8 32 12.5t56 4.5q38 0 56.5 -5t29.5 -10t16 -13t5 -17zM1581 317q0 -77 -24.5 -140t-69 -108t-105.5 -69.5t-133 -24.5t-132.5 24.5t-105 69.5t-69 108t-24.5 140t24.5 140t69 108
t105 69.5t132.5 24.5t132.5 -24.5t105 -69t69.5 -107.5t25 -141z" />
    <glyph glyph-name="ampersand" unicode="&#x26;" horiz-adv-x="1290" 
d="M860 657h-278q-67 0 -114 -20t-76 -54.5t-42.5 -81t-13.5 -98.5q0 -101 62.5 -160t191.5 -59q132 0 201 74t69 234v165zM1274 805q0 -15 -1.5 -33t-4 -34.5t-6.5 -30.5t-9 -23q-9 -17 -26 -22t-43 -5h-84v-174q0 -122 -37 -216t-105.5 -157.5t-165.5 -96.5t-217 -33
q-101 0 -190.5 25.5t-156.5 77.5t-105.5 131.5t-38.5 188.5t52 200.5t161 150.5q-34 19 -63 47t-50.5 63t-34 78t-12.5 92q0 88 34 156t89 115t125.5 71.5t144.5 24.5q48 0 85 -4t66 -10.5t53 -15t46 -17.5q43 -19 55.5 -34.5t12.5 -29.5t-5 -32t-16 -39q-14 -28 -28.5 -47
t-36.5 -19t-40 9.5t-40 17.5t-54 16t-81 8q-36 0 -68.5 -11.5t-56.5 -34t-38.5 -56t-14.5 -78.5q0 -78 56.5 -124t178.5 -46h608q20 0 30.5 -1.5t17.5 -4.5q8 -5 11 -14t3 -29z" />
    <glyph glyph-name="quotesingle" unicode="'" horiz-adv-x="446" 
d="M334 946q0 -20 -3.5 -29.5t-13.5 -17.5q-9 -8 -32.5 -14t-63.5 -6q-38 0 -60.5 5t-31.5 13q-11 8 -13.5 18.5t-2.5 30.5l-13 367q0 21 4.5 31t12.5 18q11 8 34.5 13t69.5 5q47 0 72 -5t35 -13q9 -8 13.5 -17.5t4.5 -29.5z" />
    <glyph glyph-name="parenleft" unicode="(" horiz-adv-x="702" 
d="M676 -260q0 -27 -35 -80q-22 -35 -38 -50.5t-36 -15.5t-34 6.5t-37 18.5q-83 42 -158 121t-131.5 189.5t-89.5 249.5t-33 302q0 165 33 305.5t89.5 251.5t131.5 190.5t158 121.5q23 12 37 18t34 6t36 -15t38 -50q35 -53 35 -80q0 -24 -23 -39q-54 -37 -111 -92
t-103.5 -138.5t-76.5 -201t-30 -277.5q0 -106 13.5 -192t37.5 -156t55.5 -124.5t67 -97.5t73.5 -75.5t74 -56.5q11 -8 17 -18t6 -21z" />
    <glyph glyph-name="parenright" unicode=")" horiz-adv-x="702" 
d="M618 481q0 -163 -33 -302t-89.5 -249.5t-131 -189.5t-157.5 -121q-23 -12 -37.5 -18.5t-34.5 -6.5t-36 15.5t-38 50.5q-34 54 -34 80q0 23 22 39q55 37 112 92t103.5 137.5t76.5 198.5t30 274q0 160 -30 277.5t-76.5 201t-103.5 138.5t-112 92q-22 16 -22 39q0 26 34 80
q22 35 38 50t36 15t34.5 -6t37.5 -18q83 -42 157.5 -121.5t131 -190.5t89.5 -251.5t33 -305.5z" />
    <glyph glyph-name="asterisk" unicode="*" horiz-adv-x="879" 
d="M827 1038q0 -15 -12.5 -28.5t-34.5 -18.5l-205 -49l138 -162q6 -8 10 -18t4 -23q0 -28 -59 -67q-15 -11 -26 -18t-19 -10.5t-15 -5t-14 -1.5q-22 0 -32.5 13t-18.5 24l-105 170l-104 -170q-8 -11 -19 -24t-32 -13q-8 0 -14.5 1.5t-15 5t-19 10.5t-25.5 18q-59 39 -59 67
q0 13 4 23t10 18l137 162l-205 49q-21 5 -34 18.5t-13 28.5q0 11 2 26.5t15 47.5q11 29 20 44t18 22q15 8 31 8q9 0 28.5 -6t33.5 -13l157 -61l-16 211q-2 20 3.5 30.5t14.5 16.5q10 6 27.5 11t54.5 5t55 -5t27 -11t15 -16.5t4 -30.5l-17 -211l158 61q14 7 33 13t28 6
q18 0 31 -8q9 -7 18.5 -22t20.5 -44q12 -32 14 -47.5t2 -26.5z" />
    <glyph glyph-name="plus" unicode="+" 
d="M924 635q0 -38 -6.5 -57.5t-14.5 -30.5q-8 -9 -18.5 -13t-32.5 -4h-238v-264q0 -21 -3.5 -31.5t-14.5 -19.5q-9 -8 -30.5 -13t-61.5 -5q-44 0 -63.5 6t-30.5 14q-10 8 -13.5 19t-3.5 32v262h-237q-22 0 -33 4t-19 13q-8 11 -14 30.5t-6 57.5t5 57.5t13 28.5
q10 11 20 14.5t32 3.5h239v265q0 21 3.5 32t13.5 19q11 8 30.5 14t63.5 6q40 0 61.5 -5t30.5 -13q11 -10 14.5 -20t3.5 -31v-267h240q22 0 32 -3.5t19 -14.5q8 -9 13.5 -28.5t5.5 -57.5z" />
    <glyph glyph-name="comma" unicode="," horiz-adv-x="449" 
d="M375 211q0 -16 -3 -27.5t-10 -29.5l-116 -322q-7 -19 -16.5 -30t-23 -16.5t-31 -7t-40.5 -1.5q-46 0 -72 9.5t-26 37.5q0 14 2.5 24t5.5 25l76 328q4 18 11.5 29.5t22.5 18.5t39 10t62 3q40 0 63.5 -5t36 -13t16 -17t3.5 -16z" />
    <glyph glyph-name="hyphen" unicode="-" horiz-adv-x="752" 
d="M676.5 457.5q-1.5 -18.5 -4.5 -36t-8 -33t-11 -26.5q-11 -18 -26 -24t-43 -6h-445q-21 0 -32 2.5t-17 5.5q-9 6 -12.5 16.5t-3.5 32.5q0 16 1.5 34t4.5 35.5t7.5 33t10.5 26.5q11 19 26.5 25t43.5 6h444q22 0 32.5 -2.5t17.5 -5.5q9 -7 12.5 -17.5t3.5 -31.5
q0 -16 -1.5 -34.5z" />
    <glyph glyph-name="hyphen" unicode="&#xad;" horiz-adv-x="752" 
d="M676.5 457.5q-1.5 -18.5 -4.5 -36t-8 -33t-11 -26.5q-11 -18 -26 -24t-43 -6h-445q-21 0 -32 2.5t-17 5.5q-9 6 -12.5 16.5t-3.5 32.5q0 16 1.5 34t4.5 35.5t7.5 33t10.5 26.5q11 19 26.5 25t43.5 6h444q22 0 32.5 -2.5t17.5 -5.5q9 -7 12.5 -17.5t3.5 -31.5
q0 -16 -1.5 -34.5z" />
    <glyph glyph-name="period" unicode="." horiz-adv-x="440" 
d="M367 129q0 -30 -12 -56.5t-32.5 -47t-47.5 -32t-56 -11.5q-28 0 -54 11.5t-46.5 32t-32.5 47t-12 56.5q0 28 11.5 55t31 48t46 34t56.5 13q28 0 54.5 -12t47.5 -33t33.5 -48t12.5 -57z" />
    <glyph glyph-name="slash" unicode="/" horiz-adv-x="707" 
d="M696 1323q0 -12 -4 -29.5t-16 -48.5l-447 -1179q-6 -17 -13 -28t-15 -18q-13 -9 -32 -14.5t-56 -5.5q-38 0 -56 5t-30 13q-10 7 -13.5 14.5t-3.5 16.5q0 13 4 30t17 48l446 1180q6 17 13.5 27.5t15.5 17.5q12 9 31.5 14.5t56.5 5.5t55.5 -5t30.5 -13q16 -11 16 -31z" />
    <glyph glyph-name="zero" unicode="0" 
d="M719 635q0 116 -16.5 200.5t-45 139.5t-68 81.5t-85.5 26.5t-85.5 -26.5t-68 -81.5t-45 -139.5t-16.5 -200.5t16.5 -200.5t45 -139t68 -81t85.5 -26.5t85.5 26.5t68 81t45 139t16.5 200.5zM963 635q0 -152 -32.5 -273t-92 -206t-144.5 -130.5t-190 -45.5q-107 0 -192 45
t-144.5 130t-91 206.5t-31.5 273.5q0 151 32 272.5t91.5 207t144.5 131.5t191 46t191 -45.5t144.5 -131t91.5 -207t32 -273.5z" />
    <glyph glyph-name="one" unicode="1" 
d="M684 61q0 -21 -3.5 -31t-12.5 -18q-11 -9 -34 -14.5t-65 -5.5t-64.5 5t-31.5 13t-12.5 18.5t-3.5 30.5v902l-150 -136q-15 -14 -30.5 -23t-36.5 -9q-23 0 -40.5 13t-31.5 32q-16 18 -26.5 37.5t-10.5 39.5q0 19 20.5 42t51.5 49l270 227q38 32 68.5 45.5t56.5 13.5
q46 0 66 -22q20 -21 20 -68v-1141z" />
    <glyph glyph-name="two" unicode="2" 
d="M885 154q0 -16 -1.5 -34t-4.5 -35t-8 -31.5t-11 -24.5q-9 -17 -25.5 -23t-43.5 -6h-644q-43 0 -61 18q-20 21 -20 84q0 20 2 35.5t7.5 29t14.5 26t23 26.5l159 160q77 77 133 137t95.5 108t63.5 86t37.5 71t18.5 63t5 61q0 42 -13 75t-36.5 55.5t-56 34t-70.5 11.5
q-47 0 -74 -11t-47 -23q-22 -13 -39.5 -31.5t-34.5 -32.5q-12 -12 -26 -19.5t-29 -7.5q-22 0 -41.5 13t-34.5 30q-19 17 -34 36t-15 36q0 25 14.5 44.5t42.5 47.5q19 18 50 40.5t73 41.5t95 32t116 13q81 0 153 -22.5t126 -69t86 -117.5t32 -168q0 -94 -36.5 -180.5
t-93 -164.5t-123 -147t-126.5 -128l-88 -86h426q38 0 47 -6q11 -8 14 -17.5t3 -29.5z" />
    <glyph glyph-name="three" unicode="3" 
d="M862 403q0 -93 -29.5 -164t-79 -123.5t-113.5 -88t-133 -57t-137.5 -31t-127.5 -9.5q-51 0 -81.5 5.5t-45.5 17.5q-16 12 -21.5 30t-5.5 46q0 24 2 43t9.5 33.5t22 23t40.5 10.5q34 3 73 4.5t84 6.5q46 5 98.5 20t97 44t74 73.5t29.5 109.5q0 90 -54 139.5t-167 49.5h-63
q-22 0 -32.5 2.5t-16.5 5.5q-10 8 -13.5 16.5t-3.5 30.5q0 37 6 72t19 55q9 17 24 22t41 5h33q109 0 163 42.5t54 116.5q0 66 -43.5 102t-115.5 36q-39 0 -68 -6t-51.5 -14.5t-39 -18t-28.5 -17.5q-12 -7 -22.5 -15t-21 -15t-21.5 -12t-23 -5q-26 0 -42.5 16t-29.5 31
q-12 16 -22 32t-10 38q0 15 10.5 30.5t27 30t37 27.5t41.5 25q19 10 46.5 22.5t64 23.5t83 18t103.5 7q69 0 134 -19t115 -57t80 -95t30 -132q0 -57 -14 -101t-38.5 -77.5t-58 -59t-72.5 -44.5q41 -15 78 -40t64.5 -62.5t44 -87t16.5 -112.5z" />
    <glyph glyph-name="four" unicode="4" 
d="M582 926l-291 -437h291v437zM963 436q0 -32 -7 -57.5t-16 -42.5q-11 -19 -27 -25t-45 -6h-69v-305q0 -22 -3.5 -31.5t-13.5 -17.5q-11 -9 -30.5 -15t-61.5 -6t-61.5 6t-30.5 15q-9 8 -12.5 17.5t-3.5 31.5v305h-478q-32 0 -45 12q-18 19 -18 58q0 21 1.5 37t5 28.5
t9.5 24t15 24.5l510 740q26 37 59.5 49t65.5 12q23 0 39.5 -3.5t27.5 -12.5q25 -18 25 -64v-721h100q38 0 49 -8q8 -6 11.5 -15.5t3.5 -29.5z" />
    <glyph glyph-name="five" unicode="5" 
d="M874 424q0 -97 -29 -171t-78.5 -129t-114 -92t-135.5 -60t-143.5 -32.5t-137.5 -9.5q-53 0 -83.5 5.5t-46.5 17.5q-15 12 -19.5 30.5t-4.5 47.5q0 24 2.5 44t11.5 34.5t27.5 23t50.5 8.5h62q41 0 86.5 5t89.5 16.5t83.5 31t69.5 48.5t48 68.5t18 90.5q0 49 -16.5 90.5
t-57 71.5t-109.5 47t-174 17h-20q-40 0 -63.5 5t-32.5 13q-11 8 -16 19t-3 34l25 498q2 23 5.5 35t12.5 20q10 8 27.5 13.5t48.5 5.5h543q38 0 47 -6q11 -8 13.5 -19t2.5 -33q0 -15 -1.5 -33t-4.5 -35t-7.5 -32t-10.5 -25q-10 -17 -26 -22.5t-44 -5.5h-410l-10 -234
q149 -2 249.5 -34t161.5 -86t87 -126.5t26 -154.5z" />
    <glyph glyph-name="six" unicode="6" 
d="M721 428q0 54 -14.5 99.5t-42 78.5t-67 51.5t-89.5 18.5t-90 -19t-67.5 -52.5t-42.5 -79t-15 -97.5t14.5 -97.5t41.5 -79.5t66.5 -53.5t90.5 -19.5t90.5 19.5t67.5 53.5t42.5 79.5t14.5 97.5zM956 440q0 -104 -33.5 -188.5t-93.5 -145t-141.5 -93.5t-177.5 -33t-178 33
t-141.5 94t-93.5 148.5t-34 195.5q0 116 27 219t68.5 191t91.5 160.5t97 127t85 90.5t55 51q15 14 29.5 23.5t33 15t43 8t60.5 2.5q48 0 68.5 -5t30.5 -13q12 -9 12 -25q0 -17 -15 -35t-49 -47q-27 -24 -69.5 -64.5t-89 -94t-91.5 -120t-79 -142.5q31 29 83.5 48t125.5 19
q78 0 146.5 -28.5t119.5 -82.5t80.5 -132t29.5 -177z" />
    <glyph glyph-name="seven" unicode="7" 
d="M905 1178q0 -39 -4 -62t-12 -43l-379 -1067q-8 -20 -13.5 -34.5t-13.5 -20.5q-11 -9 -35 -15t-67 -6q-45 0 -69 6.5t-33 12.5q-15 11 -15 28q0 22 12 54l375 1020h-551q-28 0 -43 8q-9 6 -12.5 15.5t-3.5 29.5q0 16 2 35.5t5.5 39t8.5 36t11 26.5q11 17 26.5 23t44.5 6
h692q41 0 56 -19q9 -9 13.5 -26.5t4.5 -46.5z" />
    <glyph glyph-name="eight" unicode="8" 
d="M719 377q0 44 -14.5 81t-42.5 64t-68.5 42.5t-91.5 15.5q-53 0 -93 -15t-67 -42t-41 -64t-14 -80q0 -44 14.5 -81t42.5 -64t67.5 -42.5t90.5 -15.5t91.5 15t68.5 41.5t42.5 63.5t14.5 81zM686 932q0 35 -11.5 65t-35 52t-58 34.5t-79.5 12.5q-91 0 -137 -46t-46 -118
q0 -35 12 -64t35 -50.5t57 -33.5t79 -12q91 0 137.5 45.5t46.5 114.5zM954 365q0 -86 -34 -156.5t-94 -121.5t-143 -79t-181 -28q-99 0 -182 28t-142.5 79t-93 121.5t-33.5 156.5q0 108 49.5 191.5t143.5 131.5q-71 40 -110.5 109t-39.5 157q0 77 30.5 139.5t85 106.5
t129 68t163.5 24t164 -23.5t129.5 -67.5t85 -106.5t30.5 -140.5q0 -88 -39 -158t-110 -108q94 -48 143 -131t49 -192z" />
    <glyph glyph-name="nine" unicode="9" 
d="M717 844q0 52 -14.5 97.5t-41.5 79.5t-66.5 53.5t-90.5 19.5t-90.5 -19.5t-67.5 -53.5t-42.5 -79.5t-14.5 -97.5q0 -53 14.5 -98.5t42 -78.5t67 -52t89.5 -19t89.5 19t67 52.5t42 79t14.5 97.5h2zM944 821q0 -116 -27.5 -220.5t-70.5 -194t-94 -162.5t-98 -127.5t-83 -89
t-49 -45.5q-15 -14 -29.5 -23.5t-32.5 -15.5t-43 -8.5t-61 -2.5q-47 0 -66.5 5t-25.5 10q-11 6 -14.5 13t-3.5 15q0 17 13 33.5t38 38.5q32 28 77 70.5t92.5 97t93 121t79.5 143.5q-29 -29 -82 -48t-125 -19q-78 0 -146.5 26.5t-120.5 79.5t-82 131t-30 182q0 103 34 188
t93.5 145.5t141.5 94t178 33.5t177.5 -33t140.5 -94t92.5 -148.5t33.5 -195.5z" />
    <glyph glyph-name="colon" unicode=":" horiz-adv-x="440" 
d="M367 129q0 -30 -12 -56.5t-32.5 -47t-47.5 -32t-56 -11.5q-28 0 -54 11.5t-46.5 32t-32.5 47t-12 56.5q0 28 11.5 55t31 48t46 34t56.5 13q28 0 54.5 -12t47.5 -33t33.5 -48t12.5 -57zM367 743q0 -30 -12 -56.5t-32.5 -46.5t-47.5 -32t-56 -12q-28 0 -54 12t-46.5 32
t-32.5 46.5t-12 56.5q0 28 11.5 55t31 48t46 34t56.5 13q28 0 54.5 -12t47.5 -33t33.5 -48t12.5 -57z" />
    <glyph glyph-name="semicolon" unicode=";" horiz-adv-x="451" 
d="M385 686.5q-12 -26.5 -32 -46.5t-46.5 -32t-54.5 -12q-29 0 -55.5 12t-47 32t-33 46.5t-12.5 56.5q0 28 11.5 55t31.5 48t46.5 34t56.5 13q28 0 55 -12t47 -33t32.5 -48t12.5 -57t-12 -56.5zM372 183.5q-3 -11.5 -10 -29.5l-116 -322q-7 -19 -16.5 -30t-23 -16.5t-31 -7
t-40.5 -1.5q-46 0 -72 9.5t-26 37.5q0 14 2.5 24t5.5 25l76 328q4 18 11.5 29.5t22.5 18.5t39 10t62 3q40 0 63.5 -5t36 -13t16 -17t3.5 -16q0 -16 -3 -27.5z" />
    <glyph glyph-name="semicolon" unicode="&#x37e;" horiz-adv-x="451" 
d="M385 686.5q-12 -26.5 -32 -46.5t-46.5 -32t-54.5 -12q-29 0 -55.5 12t-47 32t-33 46.5t-12.5 56.5q0 28 11.5 55t31.5 48t46.5 34t56.5 13q28 0 55 -12t47 -33t32.5 -48t12.5 -57t-12 -56.5zM372 183.5q-3 -11.5 -10 -29.5l-116 -322q-7 -19 -16.5 -30t-23 -16.5t-31 -7
t-40.5 -1.5q-46 0 -72 9.5t-26 37.5q0 14 2.5 24t5.5 25l76 328q4 18 11.5 29.5t22.5 18.5t39 10t62 3q40 0 63.5 -5t36 -13t16 -17t3.5 -16q0 -16 -3 -27.5z" />
    <glyph glyph-name="less" unicode="&#x3c;" 
d="M926 309q0 -38 -6 -60.5t-11 -31.5q-12 -18 -30 -18q-23 0 -58 14l-684 305q-15 7 -25.5 15t-17 20.5t-9.5 31t-3 46.5t3 46.5t10 30.5t17 20t25 15l684 310q35 14 58 14q18 0 30 -18q5 -10 11 -32t6 -61q0 -18 -1 -30.5t-3 -20.5t-5 -14l-6 -12q-6 -13 -22 -23t-33 -18
l-498 -205l498 -205q17 -8 33 -18.5t22 -22.5l6 -12t5 -14.5t3 -21t1 -30.5z" />
    <glyph glyph-name="equal" unicode="=" 
d="M922 434q0 -38 -6.5 -57.5t-14.5 -30.5q-8 -9 -18.5 -12.5t-32.5 -3.5h-694q-22 0 -33 3.5t-19 12.5q-8 11 -14 30.5t-6 57.5t5 57.5t13 28.5q10 11 20 15t32 4h698q22 0 32 -4t19 -15q8 -9 13.5 -28.5t5.5 -57.5zM922 834q0 -39 -6.5 -58.5t-14.5 -30.5
q-8 -9 -18.5 -12.5t-32.5 -3.5h-694q-22 0 -33 3.5t-19 12.5q-8 11 -14 30.5t-6 58.5q0 38 5 57t13 29q10 11 20 14.5t32 3.5h698q22 0 32 -3.5t19 -14.5q8 -10 13.5 -29t5.5 -57z" />
    <glyph glyph-name="greater" unicode="&#x3e;" 
d="M926 631q0 -28 -3 -46.5t-9.5 -31t-17.5 -20.5t-26 -15l-684 -305q-34 -14 -57 -14q-19 0 -31 18q-5 9 -10.5 31.5t-5.5 60.5q0 37 4 51.5t10 26.5t22.5 22.5t33.5 18.5l497 205l-497 205q-17 8 -33.5 18t-22.5 23q-3 6 -5.5 12t-4.5 14t-3 20.5t-1 30.5q0 39 5.5 61
t10.5 32q12 18 31 18q23 0 57 -14l684 -310q15 -7 25.5 -15t17 -20t10 -30.5t3.5 -46.5z" />
    <glyph glyph-name="question" unicode="?" horiz-adv-x="946" 
d="M537 127q0 -30 -12 -56.5t-33 -46t-48.5 -31t-58.5 -11.5q-30 0 -57.5 11.5t-48.5 31t-33.5 46t-12.5 56.5q0 29 12 55.5t32.5 47t48 32.5t59.5 12q30 0 57.5 -11.5t48.5 -32t33.5 -47t12.5 -56.5zM819 1010q0 -83 -21.5 -146t-62 -110.5t-99.5 -82t-134 -61.5v-147
q0 -20 -3.5 -29.5t-13.5 -17.5q-11 -8 -34.5 -14.5t-65.5 -6.5t-65.5 5.5t-32.5 13.5q-10 8 -14.5 18.5t-4.5 30.5v217q0 19 4 32t11.5 22t18 15.5t24.5 12.5q11 5 24 8.5t35 9.5q97 28 148 79t51 140q0 36 -12.5 69t-38 58.5t-63 40.5t-87.5 15q-57 0 -89 -9t-56 -18
q-25 -9 -42.5 -18t-37.5 -9q-22 0 -37.5 18.5t-26.5 43.5q-12 26 -17 44t-5 34q0 7 2.5 15t11 16.5t24.5 17.5t44 20q18 7 39 14t49 12.5t64.5 9t84.5 3.5q99 0 178 -27t134.5 -76t85.5 -116t30 -147z" />
    <glyph glyph-name="at" unicode="@" horiz-adv-x="1620" 
d="M995 670q-24 11 -53.5 19.5t-77.5 8.5q-40 0 -73 -11.5t-60.5 -31t-49 -46t-38.5 -56.5q-12 -21 -20.5 -44.5t-14.5 -48t-9 -47.5t-3 -42q0 -29 6.5 -55t21.5 -46.5t40 -32.5t63 -12q45 0 83.5 26.5t68.5 69t52 97t34 110.5zM1536 580q0 -88 -20.5 -162.5t-61.5 -151.5
q-24 -47 -64 -86t-88.5 -67.5t-101 -44t-102.5 -15.5q-51 0 -85.5 10.5t-54.5 30.5q-33 35 -36 82q-19 -22 -43 -44t-55 -39.5t-70 -28.5t-88 -11q-64 0 -113.5 22.5t-83.5 63t-52 96.5t-18 123q0 73 17.5 137.5t52.5 129.5q27 49 67 92t91.5 75.5t113.5 51t133 18.5
q59 0 107.5 -8t85 -18.5t60 -21.5t32.5 -17q16 -11 22.5 -22.5t6.5 -26.5q0 -13 -2 -27.5t-8 -40.5l-76 -361q-5 -18 -6.5 -29.5t-1.5 -25.5q0 -25 14.5 -35t34.5 -10q37 0 76 25.5t70 73t51 114t20 148.5q0 97 -35 179t-102 141.5t-163 92.5t-218 33q-97 0 -177 -23
t-144 -63t-112 -95t-79.5 -118t-47.5 -132t-16 -138q0 -132 39 -237t114 -178.5t184.5 -113t250.5 -39.5q96 0 196.5 18.5t202.5 67.5l57 28.5t44 12.5q17 0 29 -11.5t24 -31.5t19.5 -36t7.5 -31q0 -14 -9.5 -25t-23.5 -20q-17 -11 -42 -24t-52 -25q-96 -42 -210.5 -67.5
t-242.5 -25.5q-137 0 -247.5 29.5t-196 81t-147.5 121.5t-101.5 152t-58.5 172.5t-19 181.5q0 95 24 186.5t69.5 173.5t111.5 150.5t150 118.5t185.5 78t217.5 28q163 0 292 -48t218.5 -131t136.5 -194.5t47 -238.5z" />
    <glyph glyph-name="A" unicode="A" horiz-adv-x="1186" 
d="M588 1079l-182 -553h364zM1176 37q0 -9 -5.5 -16.5t-11.5 -12.5q-8 -6 -32.5 -12t-69.5 -6q-51 0 -72.5 6t-32.5 14q-16 13 -26 45l-92 279h-492l-88 -268q-6 -20 -12.5 -35t-14.5 -21q-11 -9 -36 -14.5t-68 -5.5q-45 0 -67 5t-33 13q-13 12 -13 29q0 9 4 24t9 29
l434 1239q5 16 11.5 24t12.5 13q13 8 37 13t74 5q51 0 75.5 -5t37.5 -13q6 -5 12.5 -13t11.5 -24l436 -1247q5 -14 8 -25t3 -20z" />
    <glyph glyph-name="B" unicode="B" horiz-adv-x="1245" 
d="M909 416q0 45 -12 84t-44 67t-87 44t-141 16h-236v-428h258q70 0 120 17.5t81.5 47t46 69t14.5 83.5zM844 1010q0 37 -11.5 67.5t-37.5 52t-68 33t-102 11.5h-236v-349h217q79 0 126 16t72 42t32.5 59t7.5 68zM1163 401q0 -90 -33 -164t-95.5 -126.5t-152.5 -81.5
t-204 -29h-412q-45 0 -67 5t-31 13t-13.5 20.5t-4.5 35.5v1224q0 23 4.5 35.5t13.5 20.5t31 13t67 5h406q96 0 173.5 -22.5t132.5 -64.5t84.5 -103t29.5 -138q0 -64 -14 -112.5t-37.5 -85t-54 -61.5t-62.5 -42q44 -15 87 -42t76.5 -68.5t54.5 -98.5t21 -133z" />
    <glyph glyph-name="C" unicode="C" horiz-adv-x="1143" 
d="M1122 117q0 -16 -11 -29.5t-40 -32.5q-12 -8 -32 -17t-42 -18t-44 -16t-38 -10q-42 -9 -93 -16t-117 -7q-135 0 -248.5 47.5t-196.5 138t-129.5 223t-46.5 302.5t46.5 303.5t128.5 226t194 141t243 48.5q68 0 119.5 -6t91 -15t69.5 -20t54 -21q48 -20 67 -36.5t19 -34.5
q0 -20 -7 -42.5t-24 -51.5q-11 -20 -20.5 -33t-18 -20.5t-17 -10t-17.5 -2.5q-17 0 -39 9t-37 16q-9 4 -29.5 12.5t-49.5 17t-67 15t-83 6.5q-84 0 -151.5 -31.5t-115 -94.5t-73 -156.5t-25.5 -217.5q0 -123 29 -215.5t78.5 -154.5t116 -93t141.5 -31q51 0 90.5 6t69 15
t51 18.5t36.5 16.5q25 11 37.5 14.5t28.5 3.5q18 0 36.5 -16t35.5 -45q30 -53 30 -86z" />
    <glyph glyph-name="D" unicode="D" horiz-adv-x="1356" 
d="M1012 690q0 232 -96.5 353.5t-286.5 121.5h-234v-958h246q181 0 276 123.5t95 359.5zM1272 690q0 -162 -45 -290t-127.5 -217t-200 -136t-262.5 -47h-371q-45 0 -67 5t-31 13t-13.5 20.5t-4.5 35.5v1222q0 23 4.5 36t13.5 20q9 9 30.5 14.5t67.5 5.5h375
q144 0 260.5 -45.5t199 -132.5t127 -214t44.5 -290z" />
    <glyph glyph-name="E" unicode="E" horiz-adv-x="1063" 
d="M1042 154q0 -32 -5.5 -68t-16.5 -57q-9 -17 -26.5 -23t-45.5 -6h-682q-45 0 -67 5t-31 13t-13.5 20.5t-4.5 35.5v1222q0 23 4.5 36t13.5 20q9 9 30.5 14.5t67.5 5.5h705q21 0 31.5 -2.5t15.5 -5.5q9 -6 11.5 -17t2.5 -28q0 -16 -1.5 -34t-4.5 -35t-7 -32t-9 -24
q-11 -19 -27.5 -24t-44.5 -5h-543v-327h484q21 0 31 -3t16 -8q9 -6 12.5 -16t3.5 -29q0 -15 -1.5 -33t-4.5 -35.5t-7 -32.5t-9 -24q-11 -17 -28 -21.5t-46 -4.5h-451v-424h586q22 0 32 -2.5t15 -5.5q9 -7 11.5 -17.5t2.5 -27.5z" />
    <glyph glyph-name="F" unicode="F" horiz-adv-x="1032" 
d="M1022 1319q0 -16 -1.5 -34t-4.5 -35t-7 -32t-10 -24q-11 -19 -27 -24t-44 -5h-533v-338h473q22 0 31.5 -2.5t15.5 -7.5q10 -6 13.5 -16t3.5 -29q0 -15 -1.5 -33t-4.5 -35.5t-7 -32.5t-10 -24q-11 -17 -27.5 -21.5t-45.5 -4.5h-441v-558q0 -23 -3.5 -33t-12.5 -18
q-11 -9 -36.5 -14.5t-70.5 -5.5q-43 0 -70 5t-36 13q-11 8 -13.5 19t-2.5 32v1235q0 23 5 36t13 20q11 9 31.5 14.5t66.5 5.5h695q21 0 31.5 -2.5t15.5 -5.5q9 -6 11.5 -17t2.5 -28z" />
    <glyph glyph-name="G" unicode="G" horiz-adv-x="1303" 
d="M1194 143q0 -24 -5.5 -38t-14.5 -25q-10 -11 -26 -22.5t-38 -20.5q-17 -7 -48 -18.5t-77.5 -22t-109.5 -18t-144 -7.5q-145 0 -264.5 48.5t-204.5 140t-131.5 224t-46.5 300.5t47.5 301.5t133 225.5t203 141t257.5 49q69 0 121.5 -6t93 -15t72 -20.5t57.5 -22.5
q48 -20 67 -36.5t19 -34.5q0 -19 -7 -40.5t-24 -51.5q-21 -41 -38 -54.5t-35 -13.5q-19 0 -45.5 11.5t-51.5 21.5q-47 18 -100 31.5t-131 13.5q-90 0 -161 -32.5t-119.5 -95.5t-74.5 -156.5t-26 -215.5t30.5 -215t83.5 -156t124.5 -95t154.5 -32t135 9t86 20v309h-233
q-22 0 -31.5 3t-15.5 8t-11.5 15.5t-5.5 29.5q0 15 1.5 33t4 35t7 32t10.5 25q11 17 28 22.5t46 5.5h321q45 0 67 -5.5t32 -14.5q9 -8 13.5 -20.5t4.5 -35.5v-514z" />
    <glyph glyph-name="H" unicode="H" horiz-adv-x="1350" 
d="M1200 63q0 -23 -3.5 -33t-12.5 -18q-11 -9 -36.5 -14.5t-70.5 -5.5q-43 0 -69 5t-37 13q-10 10 -13.5 20t-3.5 31v574h-559v-572q0 -23 -3.5 -33t-12.5 -18q-11 -9 -36.5 -14.5t-70.5 -5.5q-43 0 -69 5t-37 13q-9 10 -12.5 20t-3.5 31v1248q0 23 3.5 33t12.5 18
q11 9 36 14.5t70 5.5q44 0 70 -5t37 -13q9 -9 12.5 -19.5t3.5 -31.5v-469h559v467q0 23 3.5 33t13.5 18q11 9 36 14.5t68 5.5q45 0 71.5 -5t37.5 -13q9 -9 12.5 -19.5t3.5 -31.5v-1248z" />
    <glyph glyph-name="I" unicode="I" horiz-adv-x="545" 
d="M395 63q0 -23 -4 -33t-12 -18q-11 -9 -37 -14.5t-70 -5.5q-43 0 -69 5t-37 13q-9 10 -12.5 20t-3.5 31v1248q0 23 3.5 33t12.5 18q11 9 36 14.5t68 5.5q45 0 71.5 -5t35.5 -13q9 -9 13.5 -19.5t4.5 -31.5v-1248z" />
    <glyph glyph-name="J" unicode="J" horiz-adv-x="954" 
d="M815 449q0 -53 -5.5 -104.5t-20 -99t-38 -90t-59.5 -77.5q-51 -50 -128 -78.5t-183 -28.5q-79 0 -142 14t-114 35q-34 14 -61.5 33.5t-38.5 30.5q-10 9 -14.5 19.5t-4.5 19.5q0 15 9.5 36t25.5 46q20 31 37 45t37 14q15 0 33 -11l36 -22q10 -5 25 -14t36 -17.5t50 -15
t67 -6.5q69 0 110 22t62.5 61t28 93t6.5 119v836q0 23 4.5 33t12.5 18q23 20 106 20q44 0 70 -5t37 -13q9 -9 12.5 -19.5t3.5 -31.5v-862z" />
    <glyph glyph-name="K" unicode="K" horiz-adv-x="1212" 
d="M1202 43q0 -12 -6.5 -20t-15.5 -13q-10 -5 -34.5 -11.5t-74.5 -6.5q-32 0 -56.5 1.5t-44 6t-34.5 13t-27 22.5l-514 594v-566q0 -23 -3.5 -33t-12.5 -18q-11 -9 -36.5 -14.5t-70.5 -5.5q-43 0 -69 5t-37 13q-9 10 -12.5 20t-3.5 31v1248q0 23 3.5 33t12.5 18
q11 9 36 14.5t70 5.5q44 0 70 -5t37 -13q9 -9 12.5 -19.5t3.5 -31.5v-510l486 536q12 14 25 22.5t30 13t39 6t51 1.5q50 0 74 -7t35 -13q8 -5 13 -12.5t5 -18.5t-10 -26t-27 -35l-495 -545l542 -617q19 -21 29 -36t10 -27z" />
    <glyph glyph-name="L" unicode="L" horiz-adv-x="1024" 
d="M1016 154q0 -15 -2 -33.5t-5 -35.5t-7 -32t-9 -24q-9 -19 -26.5 -24t-44.5 -5h-656q-45 0 -67 5t-31 13t-13.5 20.5t-4.5 35.5v1235q0 23 3.5 33t12.5 18q11 9 36 14.5t70 5.5q44 0 70 -5t37 -13t13.5 -19t2.5 -32v-1102h559q22 0 32.5 -3t17.5 -9q6 -7 9 -16t3 -27z" />
    <glyph glyph-name="M" unicode="M" horiz-adv-x="1528" 
d="M1378 63q0 -23 -3.5 -33t-12.5 -18q-11 -9 -34 -14.5t-68 -5.5q-44 0 -69 5t-34 13q-9 10 -12.5 20t-3.5 31v891l-252 -440q-6 -9 -13 -16t-18 -15q-11 -6 -34 -11t-60 -5q-38 0 -61.5 5t-34.5 11q-11 8 -18 15t-13 16l-248 416v-865q0 -23 -3.5 -33t-12.5 -18
q-11 -9 -35.5 -14.5t-69.5 -5.5q-43 0 -66 5t-34 13q-9 10 -12.5 20t-3.5 31v1143l-39 66q-13 20 -19 32t-6 29q0 19 21 33q14 8 43 12t69 4q59 0 92.5 -9t48.5 -32l404 -628l367 616q13 23 28 35q13 9 34.5 13.5t61.5 4.5q45 0 69.5 -5t35.5 -13q9 -9 12.5 -19.5t3.5 -31.5
v-1248z" />
    <glyph glyph-name="N" unicode="N" horiz-adv-x="1305" 
d="M1155 63q0 -23 -4 -33t-12 -18q-11 -9 -33 -14.5t-64 -5.5q-45 0 -67.5 5.5t-34.5 16.5q-11 9 -18 25l-533 862v-838q0 -23 -3.5 -33t-12.5 -18q-11 -9 -33.5 -14.5t-67.5 -5.5q-43 0 -68 5t-36 13q-9 10 -12.5 20t-3.5 31v1143l-41 70q-8 14 -15.5 27.5t-7.5 25.5
q0 20 16 33q11 9 40.5 14.5t80.5 5.5q38 0 62 -4.5t39 -11t22 -15t12 -16.5l555 -901v877q0 23 4 33t13 18q11 9 34 14.5t66 5.5q45 0 70 -5t35 -13q9 -9 13.5 -19.5t4.5 -31.5v-1248z" />
    <glyph glyph-name="O" unicode="O" horiz-adv-x="1395" 
d="M1053 684q0 124 -24 218t-69.5 157.5t-111.5 96t-150 32.5t-150 -32t-111.5 -95.5t-70 -158t-24.5 -218.5q0 -248 93.5 -374t262.5 -126q83 0 149 31.5t111.5 94.5t70 156.5t24.5 217.5zM1311 684q0 -167 -44 -299.5t-124 -224.5t-193.5 -140.5t-251.5 -48.5
q-139 0 -252 48.5t-193.5 140t-124.5 224t-44 300.5q0 167 43.5 300t124 225.5t193.5 142t253 49.5q138 0 251.5 -49t193.5 -141t124 -225.5t44 -301.5z" />
    <glyph glyph-name="P" unicode="P" horiz-adv-x="1149" 
d="M846 973q0 91 -65.5 144.5t-207.5 53.5h-182v-426q35 -2 73.5 -3t86.5 -1q78 0 133.5 16.5t91.5 47t53 73.5t17 95zM1098 967q0 -90 -31.5 -168t-96 -135t-162 -90t-230.5 -33q-36 0 -62 0.5t-47 1t-39 1.5t-39 3v-484q0 -23 -3.5 -33t-12.5 -18q-11 -9 -36.5 -14.5
t-70.5 -5.5q-43 0 -67 5t-35 13q-9 10 -12.5 20t-3.5 31v1237q0 23 4.5 35.5t13.5 20.5t31 13t67 5h320q118 0 213 -24.5t161.5 -74.5t102 -126.5t35.5 -179.5z" />
    <glyph glyph-name="Q" unicode="Q" horiz-adv-x="1395" 
d="M1053 684q0 124 -24 218t-69.5 157.5t-111.5 96t-150 32.5t-150 -32t-111.5 -95.5t-70 -158t-24.5 -218.5q0 -248 93.5 -374t262.5 -126q83 0 148.5 31.5t111 94.5t69.5 156.5t24 217.5h2zM1311 684q0 -123 -24 -227.5t-69 -187.5t-110 -145t-147 -99l253 -211
q23 -19 33 -32.5t10 -27.5q0 -11 -5 -18t-13 -12q-11 -7 -38.5 -13t-86.5 -6q-34 0 -60 2t-46 7t-36 13.5t-30 20.5l-256 225h-29q-130 6 -235.5 57.5t-180.5 142.5t-116 220t-41 291q0 168 43.5 301.5t124 225.5t193.5 141t253 49q138 0 251.5 -49t193.5 -141t124 -225.5
t44 -301.5z" />
    <glyph glyph-name="R" unicode="R" horiz-adv-x="1202" 
d="M834 971q0 45 -14 82t-46 63.5t-83 40.5t-126 14h-174v-426q18 -1 33 -1.5t31.5 -1t37.5 -1t50 -0.5q81 0 137 16.5t90 47t49 73t15 93.5zM1186 43q0 -21 -21 -31q-11 -6 -39 -13t-77 -7q-29 0 -52 1t-40.5 5.5t-30.5 13t-23 23.5l-336 506q-33 0 -57 0.5t-43.5 1
t-37 1.5t-36.5 3v-484q0 -23 -3.5 -33t-12.5 -18q-11 -9 -36.5 -14.5t-70.5 -5.5q-43 0 -68 5t-36 13q-9 10 -12.5 20t-3.5 31v1235q0 23 5 35.5t13 20.5q9 9 30.5 14.5t67.5 5.5h312q244 0 374.5 -99t130.5 -306q0 -64 -15 -122t-47.5 -107t-82.5 -88t-119 -64l336 -480
q16 -23 23.5 -37t7.5 -26z" />
    <glyph glyph-name="S" unicode="S" horiz-adv-x="1112" 
d="M1053 399q0 -107 -36.5 -187t-103.5 -133.5t-161 -80.5t-209 -27q-88 0 -156 10.5t-119.5 26.5t-88.5 33.5t-62 32.5q-68 38 -68 69q0 20 12 49t27 52q16 23 30.5 37t33.5 14q11 0 21.5 -2.5t27.5 -11.5q34 -19 68.5 -36.5t73.5 -31.5t84.5 -22.5t102.5 -8.5q59 0 110 11
t88 34t58 60t21 88q0 45 -20.5 77t-57.5 56t-89 43t-114 37l-112 33q-75 21 -139 51.5t-110.5 74.5t-72.5 105t-26 143q0 95 34 170.5t97 128t152 80t198 27.5q69 0 126 -7.5t102 -19t77 -24t51 -21.5q41 -20 54.5 -35t13.5 -30q0 -19 -9.5 -46.5t-23.5 -50.5t-27.5 -36
t-36.5 -13q-20 0 -59 15t-90 32q-21 7 -41.5 12t-44 8.5t-51.5 5t-64 1.5q-56 0 -97 -14.5t-68 -39t-40.5 -57t-13.5 -69.5q0 -41 21 -69.5t58 -50t88 -38.5t110 -35l104 -31q78 -23 145 -53.5t116.5 -76t77.5 -108.5t28 -151z" />
    <glyph glyph-name="T" unicode="T" horiz-adv-x="1128" 
d="M1118 1319q0 -16 -1.5 -34t-4.5 -35t-7 -32t-9 -24q-11 -19 -28 -24t-46 -5h-334v-1102q0 -23 -3.5 -33t-12.5 -18q-11 -9 -36.5 -14.5t-70.5 -5.5q-43 0 -69 5t-37 13q-10 10 -13.5 20t-3.5 31v1104h-370q-22 0 -32 2.5t-15 6.5q-10 6 -12.5 17t-2.5 28q0 16 1.5 34
t4.5 35t7 31.5t10 23.5q11 19 27.5 24t43.5 5h951q21 0 31.5 -2.5t15.5 -5.5q16 -11 16 -45z" />
    <glyph glyph-name="U" unicode="U" horiz-adv-x="1343" 
d="M1204 440q0 -101 -29.5 -187t-93.5 -148.5t-165 -98t-244 -35.5t-244 35t-165.5 97t-94 148t-29.5 187v871q0 23 3.5 33t13.5 18q11 9 36.5 14.5t71.5 5.5q42 0 68 -5t37 -13q9 -9 12.5 -19.5t3.5 -31.5v-881q0 -52 16.5 -97.5t51.5 -79.5t89.5 -53.5t129.5 -19.5
t129 19.5t89 53.5t51.5 79.5t16.5 97.5v879q0 23 4 33t13 18q11 9 36 14.5t70 5.5q44 0 70 -5t37 -13q9 -9 12.5 -19.5t3.5 -31.5v-871z" />
    <glyph glyph-name="V" unicode="V" horiz-adv-x="1176" 
d="M1165 1333q0 -9 -3.5 -24t-8.5 -29l-442 -1239q-7 -16 -12 -24t-13 -13q-11 -8 -35.5 -13t-62.5 -5q-42 0 -65 6t-34 12q-13 8 -24 37l-445 1247q-5 14 -7.5 25t-2.5 20q0 20 15 27q20 20 106 20q43 0 70 -5.5t37 -14.5q8 -6 14 -20.5t12 -32.5l328 -938l323 936
q7 20 13 34.5t14 20.5q11 9 36 14.5t69 5.5q45 0 71 -5.5t35 -14.5q12 -9 12 -27z" />
    <glyph glyph-name="W" unicode="W" horiz-adv-x="1663" 
d="M1653 1333q0 -8 -2.5 -18.5t-5.5 -22t-6.5 -21t-4.5 -14.5l-360 -1216q-5 -16 -11 -24t-14 -13q-12 -8 -36 -13t-62 -5q-42 0 -66 5t-36 13q-15 8 -23 37l-203 711l-184 -711q-5 -16 -11 -24t-14 -13q-12 -8 -36 -13t-62 -5q-42 0 -66 5t-38 13q-7 5 -12.5 13t-10.5 24
l-369 1247q-5 16 -7.5 26t-2.5 19q0 10 5 17t10 10q11 8 36 14t70 6q43 0 71 -5.5t38 -14.5q8 -6 14.5 -20.5t11.5 -32.5l256 -936l195 735l-53 182q-5 16 -8 26t-3 19q0 10 5 17t10 10q11 8 39 14t71 6q42 0 70 -6t39 -14q8 -6 14.5 -20.5t11.5 -32.5l236 -936l248 934
q3 11 9.5 27t14.5 24q13 12 35.5 18t73.5 6q38 0 68 -5.5t42 -14.5q13 -9 13 -27z" />
    <glyph glyph-name="X" unicode="X" horiz-adv-x="1147" 
d="M1128 41q0 -11 -5 -18.5t-13 -12.5q-9 -5 -35 -11.5t-71 -6.5q-59 0 -91 8t-51 39l-291 469l-297 -467q-10 -16 -21.5 -25.5t-27 -15t-37 -7t-51.5 -1.5q-45 0 -67.5 5.5t-30.5 10.5q-9 6 -15 13t-6 18t8.5 25t20.5 34l395 596l-370 578q-14 21 -21.5 34.5t-7.5 24.5
t5 18.5t13 12.5q10 5 34 11.5t69 6.5q30 0 52 -1.5t38.5 -6.5t28 -14.5t20.5 -24.5l279 -448l284 446q10 16 21 25.5t26 15t35 7t49 1.5q47 0 68 -5.5t29 -10.5q20 -10 20 -31q0 -11 -7.5 -26t-23.5 -39l-372 -566l389 -602q28 -40 28 -59z" />
    <glyph glyph-name="Y" unicode="Y" horiz-adv-x="1167" 
d="M1157 1333q0 -11 -7.5 -26t-23.5 -39l-424 -682v-523q0 -23 -4 -33t-12 -18q-11 -9 -37 -14.5t-71 -5.5q-44 0 -70 5t-35 13q-9 10 -12.5 20t-3.5 31v523l-414 682q-17 26 -25 40t-8 25q0 21 19 31q9 5 31 11.5t67 6.5q30 0 52 -1.5t37.5 -6.5t27 -14.5t20.5 -24.5
l322 -536l323 534q10 16 20.5 25.5t25.5 15t35 7t50 1.5q45 0 68 -5.5t31 -10.5t13 -12.5t5 -18.5z" />
    <glyph glyph-name="Z" unicode="Z" horiz-adv-x="1028" 
d="M1010 154q0 -16 -2 -34t-5 -35.5t-7.5 -32t-8.5 -23.5q-9 -17 -26.5 -23t-45.5 -6h-813q-41 0 -59 18q-20 21 -20 84q0 20 2 34.5t6 26.5t10.5 23.5t15.5 26.5l633 952h-596q-21 0 -31.5 2.5t-15.5 6.5q-9 6 -11.5 17t-2.5 28q0 16 1.5 34t4.5 35t7 31.5t9 23.5
q10 19 27 24t45 5h782q22 0 36 -4.5t24 -13.5q11 -11 15.5 -30.5t4.5 -51.5q0 -20 -2 -34.5t-6 -26.5t-11 -23.5t-16 -26.5l-635 -954h629q22 0 32.5 -2.5t16.5 -7.5q8 -7 10.5 -17.5t2.5 -25.5z" />
    <glyph glyph-name="bracketleft" unicode="[" horiz-adv-x="625" 
d="M598 -295q0 -23 -3 -43t-9 -31q-10 -15 -25 -19.5t-41 -4.5h-254q-40 0 -64 6.5t-36 21.5q-8 10 -12 23t-4 35v1593q0 22 4 35t12 22q12 16 36 22.5t64 6.5h254q26 0 41 -4.5t25 -19.5q6 -11 9 -31t3 -43q0 -25 -3 -45t-9 -31q-10 -15 -25 -19.5t-41 -4.5h-145v-1369h145
q26 0 41 -4.5t25 -19.5q6 -11 9 -31t3 -45z" />
    <glyph glyph-name="backslash" unicode="\" horiz-adv-x="707" 
d="M696 49q0 -19 -16 -31q-12 -8 -30.5 -13t-55.5 -5t-56.5 5.5t-31.5 14.5q-8 7 -15.5 18t-13.5 28l-446 1179q-13 31 -17 48.5t-4 29.5q0 9 3.5 17t13.5 14q12 8 30 13t56 5q37 0 56 -5.5t32 -14.5q8 -7 15 -17.5t13 -27.5l447 -1180q12 -31 16 -48t4 -30z" />
    <glyph glyph-name="bracketright" unicode="]" horiz-adv-x="625" 
d="M475 -307q0 -22 -4 -35t-12 -23q-13 -15 -36.5 -21.5t-64.5 -6.5h-254q-26 0 -41 4.5t-24 19.5q-6 11 -9 31t-3 43q0 25 3 45t9 31q9 15 24 19.5t41 4.5h146v1369h-146q-26 0 -41 4.5t-24 19.5q-6 11 -9 31t-3 45q0 23 3 43t9 31q9 15 24 19.5t41 4.5h254q41 0 64.5 -6.5
t36.5 -22.5q8 -9 12 -22t4 -35v-1593z" />
    <glyph glyph-name="asciicircum" unicode="^" 
d="M895 588q0 -17 -20.5 -28t-71.5 -11t-76.5 8.5t-38.5 36.5l-184 407l-185 -407q-12 -28 -37.5 -36.5t-76.5 -8.5t-71.5 11t-20.5 28q0 11 3 21t9 24l281 586q15 32 39 41.5t59 9.5t59 -9.5t39 -41.5l281 -586q6 -14 9 -24t3 -21z" />
    <glyph glyph-name="underscore" unicode="_" horiz-adv-x="1024" 
d="M0 -340v102h1024v-102h-1024z" />
    <glyph glyph-name="grave" unicode="`" horiz-adv-x="1024" 
d="M702 1036q0 -20 -20.5 -29.5t-71.5 -9.5q-42 0 -65 13q-14 8 -25 18t-20 23l-125 170q-28 37 -42 59t-14 39q0 28 31.5 36.5t85.5 8.5q37 0 66 -7.5t49 -41.5l131 -225q8 -14 14 -27t6 -27z" />
    <glyph glyph-name="a" unicode="a" horiz-adv-x="946" 
d="M612 420l-204 -21q-72 -8 -108 -40.5t-36 -88.5q0 -55 34 -85.5t91 -30.5q33 0 72 9.5t72.5 33.5t56 64t22.5 101v58zM864 66q0 -12 -7 -21t-17 -16t-22.5 -13t-22.5 -10q-22 -9 -41.5 -14.5t-42.5 -5.5q-17 0 -26.5 5t-18.5 17q-10 13 -20.5 39.5t-18.5 52.5
q-57 -60 -123.5 -90t-157.5 -30q-55 0 -109 14.5t-96.5 47.5t-69 85.5t-26.5 128.5q0 80 28 134.5t76 89.5t111.5 53t134.5 24l217 18v25q0 63 -43.5 102t-136.5 39q-59 0 -106 -15.5t-84 -31.5q-19 -8 -39 -17t-41 -9q-22 0 -35.5 15.5t-26.5 37.5q-12 22 -16 34t-4 27
q0 16 11.5 29.5t43.5 30.5q26 14 57 27t70 22.5t87 15.5t110 6q86 0 156.5 -20.5t119.5 -67.5q47 -45 70.5 -112t23.5 -166v-332q0 -42 9 -68.5t14 -40.5q5 -12 8.5 -21.5t3.5 -18.5z" />
    <glyph glyph-name="b" unicode="b" horiz-adv-x="1061" 
d="M750 453q0 54 -12.5 101.5t-38 82t-64.5 54.5t-92 20q-49 0 -87 -20.5t-64.5 -56t-40 -82t-13.5 -97.5q0 -62 13.5 -112t40 -86t64.5 -55.5t87 -19.5q50 0 88.5 20.5t65 56.5t40 85.5t13.5 108.5zM991 461q0 -124 -34 -216t-93 -155q-102 -110 -268 -110q-49 0 -89.5 10
t-73 27t-56.5 39t-41 46v-41q0 -21 -3.5 -31t-13.5 -18q-11 -9 -31.5 -14.5t-62.5 -5.5q-40 0 -60.5 5t-29.5 13q-11 8 -14.5 18.5t-3.5 30.5v1213q0 26 3.5 41t14.5 26q9 10 31 17t45 12q20 5 45 8.5t39 3.5q11 0 23 -2t18 -8q9 -8 10.5 -18t1.5 -35v-518q17 21 41 41
t56 36.5t73 26.5t92 10q90 0 161 -32.5t119.5 -92t74.5 -143t26 -184.5z" />
    <glyph glyph-name="c" unicode="c" horiz-adv-x="827" 
d="M817 117q0 -16 -11.5 -31.5t-43.5 -34.5q-21 -12 -48 -25t-59.5 -23t-69.5 -16.5t-77 -6.5q-87 0 -165 29t-136.5 87t-92.5 145.5t-34 204.5q0 101 31.5 186.5t88 148t134.5 97.5t172 35q43 0 77 -3.5t61.5 -10t51 -15t45.5 -18.5q23 -10 37 -19t21.5 -17.5t9.5 -17
t2 -15.5q0 -16 -5 -34.5t-18 -43.5q-12 -25 -26 -44.5t-37 -19.5q-20 0 -36 9.5t-44 21.5t-55.5 19.5t-69.5 7.5q-43 0 -80.5 -19.5t-65 -55t-43.5 -84.5t-16 -108q0 -60 15.5 -108t42.5 -81.5t64 -52t79 -18.5q34 0 64 8t55 19t42.5 23t39.5 12q23 0 38.5 -15.5t30.5 -39.5
q13 -19 22 -40t9 -36z" />
    <glyph glyph-name="d" unicode="d" horiz-adv-x="1061" 
d="M721 455q0 50 -13.5 96t-39 81.5t-63.5 57t-87 21.5q-53 0 -92 -20.5t-65 -56t-39 -83.5t-13 -102q0 -59 13.5 -108t40 -84t65 -55t88.5 -20q49 0 87 19.5t64.5 55.5t40 86t13.5 112zM944 61q0 -21 -4.5 -32t-13.5 -19q-10 -8 -30 -13t-60 -5q-42 0 -63.5 5t-31.5 13
q-9 8 -12.5 19t-3.5 32v41q-17 -23 -42 -45t-59 -39t-76.5 -27.5t-94.5 -10.5q-76 0 -144.5 26.5t-118.5 79.5q-58 62 -89 152.5t-31 205.5q0 107 27.5 193.5t78 148t122 94.5t159.5 33q50 0 90 -10t71 -26t54 -36.5t39 -41.5v473q0 26 3.5 41t14.5 26q9 10 31 16.5t47 12.5
q23 5 45.5 8.5t36.5 3.5q12 0 22.5 -2t18.5 -8q8 -8 11 -18t3 -35v-1256z" />
    <glyph glyph-name="e" unicode="e" horiz-adv-x="971" 
d="M682 539q-2 47 -16 84.5t-38 63.5t-56.5 40t-71.5 14q-85 0 -136 -54t-63 -148h381zM907 467q0 -20 -1.5 -32.5t-4.5 -21t-7 -13.5t-9 -9q-11 -9 -31.5 -14.5t-60.5 -5.5h-492q7 -42 25.5 -78t48.5 -62t71 -40.5t93 -14.5q48 0 82 6.5t59 14.5q26 8 46.5 16t43.5 8
q25 0 37 -16.5t24 -42.5q11 -22 17 -37t6 -31q0 -15 -11 -30.5t-48 -30.5q-23 -10 -50.5 -19.5t-61.5 -17t-76 -12t-95 -4.5q-99 0 -180.5 32.5t-139.5 93t-90 146t-32 192.5q0 105 29.5 191.5t85 148t135.5 95.5t182 34q100 0 176 -33.5t127 -93t76.5 -141t25.5 -178.5z
" />
    <glyph glyph-name="f" unicode="f" horiz-adv-x="672" 
d="M784 1280q0 -19 -5.5 -35.5t-14.5 -38.5q-5 -10 -10 -20.5t-12.5 -19.5t-17 -15t-22.5 -6q-15 0 -29 5t-34 13q-16 6 -40 13.5t-64 7.5q-76 0 -106 -45t-30 -123v-123h209q20 0 30.5 -1.5t16.5 -4.5q8 -6 11.5 -14.5t3.5 -28.5q0 -31 -5.5 -62.5t-15.5 -48.5
q-9 -17 -25.5 -21.5t-43.5 -4.5h-181v-646q0 -21 -3.5 -31t-12.5 -18q-11 -9 -34.5 -14.5t-65.5 -5.5t-65.5 5t-33.5 13q-9 8 -12.5 18.5t-3.5 30.5v648h-100q-20 0 -30.5 1.5t-17.5 4.5q-8 6 -11 14.5t-3 28.5q0 31 5 61.5t18 50.5q9 16 24 20.5t43 4.5h70v133
q0 75 20.5 139.5t63.5 112t108.5 75t155.5 27.5q60 0 112.5 -9.5t94.5 -29.5q38 -18 50.5 -32t12.5 -29z" />
    <glyph glyph-name="g" unicode="g" horiz-adv-x="942" 
d="M711 -139q0 80 -125 98l-183 29q-3 1 -10.5 2t-16.5 2.5t-17.5 2.5t-12.5 3q-34 -19 -59 -48t-25 -71q0 -31 17 -54.5t48 -39.5t74 -24.5t95 -8.5q102 0 158.5 28t56.5 81zM645 588q0 75 -45 117.5t-127 42.5q-87 0 -133.5 -42.5t-46.5 -117.5t46.5 -116.5t133.5 -41.5
q39 0 71 11.5t54.5 32.5t34.5 50t12 64zM961 864q0 -17 -11.5 -28.5t-29.5 -20.5q-5 -2 -18.5 -9t-29.5 -15t-32 -16.5t-25 -14.5q22 -34 34.5 -78.5t12.5 -93.5q0 -71 -28 -128.5t-78.5 -98.5t-120 -63t-152.5 -22q-28 0 -54 4t-48 9q-16 -10 -26.5 -24.5t-10.5 -31.5
q0 -11 5.5 -20t18.5 -17.5t35 -15t56 -10.5l141 -18q83 -11 146.5 -29t107 -49t66 -78t22.5 -115q0 -73 -34 -127t-94.5 -89.5t-145 -53t-185.5 -17.5q-102 0 -182.5 18.5t-136.5 53t-85.5 83t-29.5 108.5q0 44 13 78t35.5 59.5t51 43.5t60.5 30q-35 24 -54.5 57.5
t-19.5 69.5q0 42 24.5 79t67.5 56q-72 40 -111.5 105t-39.5 153q0 67 26.5 125t77 101t124 67t167.5 24q65 0 119 -11t92 -30q35 32 65 56.5t58 40.5q17 9 30.5 14.5t28.5 5.5q20 0 36 -12t32 -35q14 -20 21.5 -36.5t7.5 -33.5z" />
    <glyph glyph-name="h" unicode="h" horiz-adv-x="1042" 
d="M932 61q0 -21 -4.5 -31t-14.5 -18q-9 -9 -33 -14.5t-67 -5.5q-40 0 -63.5 5t-32.5 13q-11 8 -15 18.5t-4 30.5v488q0 88 -39 128t-114 40q-39 0 -74 -16.5t-62 -44t-43 -64t-16 -76.5v-453q0 -21 -4.5 -31t-13.5 -18q-10 -9 -33.5 -14.5t-67.5 -5.5q-40 0 -63.5 5
t-32.5 13q-11 8 -14.5 18.5t-3.5 30.5v1213q0 52 16 65q11 11 32.5 18t47.5 13q25 6 47.5 9t36.5 3q12 0 23.5 -2t19.5 -10t9 -18.5t1 -32.5v-526q18 24 45 46.5t61 39t74.5 26.5t87.5 10q75 0 133.5 -22.5t98.5 -65t61 -103t21 -136.5v-525z" />
    <glyph glyph-name="i" unicode="i" horiz-adv-x="467" 
d="M348 59q0 -20 -3.5 -30.5t-14.5 -18.5q-10 -8 -34.5 -13t-66.5 -5q-40 0 -63.5 5t-32.5 13q-11 8 -14.5 18.5t-3.5 30.5v738q0 26 3.5 41t14.5 26q9 10 32 17.5t52 13.5q20 5 42 7.5t36 2.5q11 0 23 -2t18 -8q8 -8 10 -18.5t2 -34.5v-783zM371 1198q0 -27 -11 -51
t-30 -41.5t-44 -28t-53 -10.5t-53 10t-43.5 27.5t-29.5 41.5t-11 52q0 27 10.5 51t29 42.5t43 29t52.5 10.5t53 -10.5t44.5 -28.5t31 -42t11.5 -52z" />
    <glyph glyph-name="j" unicode="j" horiz-adv-x="463" 
d="M346 -29q0 -50 -4 -89t-12.5 -70.5t-21 -57.5t-29.5 -49q-39 -51 -101 -81t-145 -30q-71 0 -118.5 15t-70.5 29q-28 20 -28 43q0 17 6 35.5t12 33.5q16 35 29.5 49.5t32.5 14.5q15 0 26.5 -5t24.5 -8q15 -5 28.5 -7.5t30.5 -2.5q20 0 40 6t36 25q14 15 22.5 43t8.5 76
v856q0 26 3.5 41t14.5 26q9 10 32 17.5t52 13.5q20 5 42 7.5t36 2.5q11 0 23 -2t18 -8q9 -8 10.5 -18.5t1.5 -34.5v-871zM367 1198q0 -27 -11 -51t-29.5 -41.5t-44 -28t-53.5 -10.5q-27 0 -52 10t-44 27.5t-30 41.5t-11 52q0 27 11 51t29.5 42.5t43.5 29t53 10.5t53 -10.5
t44 -28.5t30 -42t11 -52z" />
    <glyph glyph-name="k" unicode="k" horiz-adv-x="954" 
d="M954 41q0 -11 -5 -18.5t-13 -12.5q-11 -6 -35.5 -12t-75.5 -6q-58 0 -94 7t-59 36l-322 393v-367q0 -21 -4.5 -31t-13.5 -18q-11 -9 -34 -14.5t-67 -5.5q-40 0 -63.5 5t-32.5 13q-11 10 -14.5 19.5t-3.5 29.5v1213q0 52 16 65q11 11 31.5 18t46.5 13q25 6 47.5 9t36.5 3
q12 0 23.5 -2t19.5 -10t9 -18.5t1 -32.5v-742l287 281q14 13 28 21t30.5 12t38 5t50.5 1q47 0 65.5 -4.5t26.5 -7.5q25 -10 25 -33q0 -14 -9.5 -26.5t-23.5 -24.5l-305 -291l354 -404q39 -41 39 -63z" />
    <glyph glyph-name="l" unicode="l" horiz-adv-x="467" 
d="M350 61q0 -21 -4.5 -30t-13.5 -19q-10 -9 -33.5 -14.5t-67.5 -5.5q-40 0 -63.5 5t-32.5 13q-11 8 -14.5 18.5t-3.5 30.5v1213q0 52 16 65q11 11 32.5 18t47.5 13q25 6 47.5 9t36.5 3q12 0 23.5 -2t19.5 -10t9 -18.5t1 -32.5v-1256z" />
    <glyph glyph-name="m" unicode="m" horiz-adv-x="1542" 
d="M1432 61q0 -21 -5 -31t-14 -18q-9 -9 -33 -14.5t-67 -5.5q-40 0 -63.5 5t-32.5 13q-11 8 -15 18.5t-4 30.5v498q0 76 -29 117t-102 41q-34 0 -65.5 -16.5t-56 -43t-39.5 -58.5t-15 -62v-474q0 -21 -3.5 -31t-13.5 -18q-11 -9 -34.5 -14.5t-65.5 -5.5t-66.5 5t-33.5 13
t-13 18.5t-4 30.5v498q0 77 -29 117.5t-102 40.5q-35 0 -67 -16.5t-56 -43t-38.5 -58.5t-14.5 -62v-474q0 -21 -4.5 -31t-13.5 -18q-10 -9 -33.5 -14.5t-67.5 -5.5q-40 0 -63.5 5t-32.5 13q-11 8 -14.5 18.5t-3.5 30.5v738q0 26 3.5 41t14.5 26q9 10 31 16.5t51 14.5
q19 5 39.5 7.5t34.5 2.5q12 0 23.5 -1.5t17.5 -6.5q11 -9 12.5 -20t1.5 -35v-60q16 25 40.5 48.5t56.5 42t72 29.5t87 11q88 0 151.5 -36t100.5 -105q21 31 51.5 56.5t67 44.5t78 29.5t86.5 10.5q142 0 218.5 -79.5t76.5 -225.5v-547z" />
    <glyph glyph-name="n" unicode="n" horiz-adv-x="1042" 
d="M932 61q0 -21 -4.5 -31t-14.5 -18q-9 -9 -33 -14.5t-67 -5.5q-40 0 -63.5 5t-32.5 13q-11 8 -15 18.5t-4 30.5v488q0 88 -39 128t-114 40q-40 0 -75.5 -16.5t-62 -44t-42 -64t-15.5 -76.5v-453q0 -21 -4.5 -31t-13.5 -18q-10 -9 -33.5 -14.5t-67.5 -5.5q-40 0 -63.5 5
t-32.5 13q-11 8 -14.5 18.5t-3.5 30.5v738q0 26 3.5 41t14.5 26q9 10 30 16.5t44 12.5q25 6 46.5 9t35.5 3q12 0 23.5 -1.5t17.5 -6.5q11 -9 12.5 -20t1.5 -35v-62q17 26 42.5 50t59.5 42.5t76.5 29.5t93.5 11q75 0 133.5 -22.5t98.5 -65t61 -103t21 -136.5v-525z" />
    <glyph glyph-name="o" unicode="o" horiz-adv-x="1040" 
d="M733 446q0 59 -14 109.5t-41 87t-67 57.5t-91 21t-90.5 -20.5t-67.5 -57t-42.5 -87t-14.5 -110.5q0 -59 14.5 -109t42 -87t67.5 -57.5t91 -20.5t90.5 20.5t66.5 57t41.5 86.5t14.5 110zM971 446q0 -104 -34 -190t-94 -147.5t-143 -95t-180 -33.5t-179.5 33.5t-142.5 94.5
t-94 147t-34 191t33.5 191t93.5 147.5t142.5 95t180.5 33.5q97 0 179.5 -33.5t143 -94.5t94.5 -147.5t34 -191.5z" />
    <glyph glyph-name="p" unicode="p" horiz-adv-x="1061" 
d="M750 453q0 54 -12.5 101.5t-38 82t-64.5 54.5t-92 20q-49 0 -87 -20.5t-64.5 -56t-40 -82t-13.5 -97.5q0 -62 13.5 -112t40 -86t64.5 -55.5t87 -19.5q50 0 88.5 20.5t65 56.5t40 85.5t13.5 108.5zM991 467q0 -130 -33.5 -223.5t-95.5 -155.5q-51 -53 -118.5 -80.5
t-145.5 -27.5q-91 0 -152.5 31.5t-95.5 74.5v-414q0 -21 -4.5 -31t-13.5 -18q-11 -9 -34 -14.5t-67 -5.5q-40 0 -62.5 5.5t-33.5 14.5q-9 8 -13.5 18t-4.5 31v1125q0 26 3.5 41t14.5 26q9 10 30 16.5t44 12.5q25 6 46.5 9t35.5 3q12 0 23.5 -1.5t17.5 -6.5q11 -9 12.5 -20
t1.5 -35v-51q15 24 39.5 46t58 39t76 27t94.5 10q79 0 142.5 -24.5t111.5 -71.5q59 -59 91 -147.5t32 -202.5z" />
    <glyph glyph-name="q" unicode="q" horiz-adv-x="1061" 
d="M721 453q0 51 -13.5 98t-39 82.5t-63.5 56.5t-87 21q-53 0 -92 -20.5t-65 -56t-39 -83.5t-13 -102q0 -60 13.5 -109t39.5 -84.5t64.5 -54.5t89.5 -19q49 0 87 19.5t64.5 54.5t40 85t13.5 112zM944 -328q0 -21 -4.5 -32t-13.5 -19q-10 -8 -31.5 -13t-63.5 -5t-64 5t-32 13
q-11 9 -14.5 19.5t-3.5 31.5v420q-18 -21 -43 -41.5t-58.5 -36t-74.5 -25t-90 -9.5q-75 0 -138.5 22.5t-115.5 75.5q-65 65 -96 157t-31 209q0 107 27.5 193.5t78 148t122 94.5t159.5 33q50 0 90 -10t71 -26t54 -36.5t39 -41.5v35q0 20 4.5 30.5t13.5 18.5t33.5 13t64.5 5
q41 0 65 -5t34 -13q9 -8 13.5 -18.5t4.5 -30.5v-1164v2z" />
    <glyph glyph-name="r" unicode="r" horiz-adv-x="731" 
d="M731 817q0 -15 -6.5 -36.5t-17.5 -41.5q-13 -23 -28.5 -43t-35.5 -20q-15 0 -26.5 5t-28.5 11q-16 6 -32 11.5t-38 5.5q-35 0 -62 -16t-50 -44q-25 -31 -40.5 -73.5t-15.5 -98.5v-416q0 -21 -4.5 -31t-13.5 -18q-10 -9 -33.5 -14.5t-67.5 -5.5q-40 0 -63.5 5t-32.5 13
q-11 8 -14.5 18.5t-3.5 30.5v738q0 26 3.5 41t14.5 26q9 10 29.5 16.5t42.5 12.5q26 6 48 9t36 3q12 0 23.5 -1.5t17.5 -6.5q11 -9 12.5 -20t1.5 -35v-64q11 21 31 43.5t47 41t59.5 30.5t67.5 12t62 -6t55 -18q29 -13 46 -27.5t17 -36.5z" />
    <glyph glyph-name="s" unicode="s" horiz-adv-x="840" 
d="M807 272q0 -71 -29 -125.5t-80 -91.5t-121 -56t-153 -19q-64 0 -117.5 8t-96 19t-74 24t-50.5 24q-32 19 -42.5 32.5t-10.5 29.5q0 14 7 33.5t19 39.5q14 23 27.5 34.5t30.5 11.5q11 0 24.5 -4.5t27 -10.5t26.5 -12t24 -10q16 -6 38.5 -13t49 -13t56 -9.5t59.5 -3.5
q69 0 109 23.5t40 68.5q0 22 -8 38.5t-26.5 29t-47.5 21t-71 15.5l-84 15q-55 9 -106 27.5t-90.5 49.5t-63 76t-23.5 107q0 68 27.5 120.5t76.5 88.5t116.5 54.5t146.5 18.5q77 0 147 -12.5t123 -32.5q37 -14 49.5 -28t12.5 -29t-4.5 -30.5t-12.5 -37.5q-8 -21 -20 -38
t-35 -17q-25 0 -50 9.5t-57 17.5q-35 8 -74.5 15t-90.5 7q-63 0 -96.5 -23t-33.5 -65q0 -37 41 -59t107 -33l96 -16q60 -10 112.5 -27.5t91 -48t61 -77.5t22.5 -116z" />
    <glyph glyph-name="t" unicode="t" horiz-adv-x="692" 
d="M696 90q0 -22 -21 -38.5t-44 -28.5q-25 -14 -71 -28.5t-118 -14.5q-69 0 -117.5 15.5t-80.5 43.5q-42 35 -59 88.5t-17 128.5v451h-100q-20 0 -30.5 1.5t-17.5 4.5q-8 6 -11 14.5t-3 28.5q0 31 5 61.5t18 50.5q9 16 24 20.5t43 4.5h70v188q0 26 3.5 42.5t14.5 25.5
q10 9 32.5 16.5t51.5 14.5q19 5 40.5 7.5t35.5 2.5t24 -2.5t15 -5.5q11 -8 12.5 -19.5t1.5 -36.5v-233h205q20 0 30.5 -1.5t16.5 -4.5q8 -6 11.5 -14.5t3.5 -28.5q0 -31 -6 -62.5t-15 -48.5q-11 -17 -26.5 -21.5t-43.5 -4.5h-176v-439q0 -47 21 -69q21 -25 63 -25
q26 0 44.5 5.5t33.5 10.5q14 7 26.5 13t26.5 6q22 0 34.5 -16.5t23.5 -34.5q12 -22 19 -37t7 -31z" />
    <glyph glyph-name="u" unicode="u" horiz-adv-x="1042" 
d="M926 61q0 -21 -4.5 -31t-14.5 -20q-9 -8 -30.5 -13t-63.5 -5t-63.5 5t-30.5 13t-13 19t-4 32v60q-17 -29 -44 -55t-62.5 -45t-79 -30t-92.5 -11q-72 0 -130 21.5t-98.5 63t-62.5 102.5t-22 140v524q0 22 3.5 32t12.5 18q11 9 34 14.5t66 5.5q41 0 65 -5t34 -13
q9 -8 12.5 -18.5t3.5 -30.5v-488q0 -88 42 -128t112 -40q38 0 73.5 16.5t62.5 44t43.5 64t16.5 76.5v452q0 22 3.5 32t13.5 18q11 9 34 14.5t66 5.5q40 0 64.5 -5t33.5 -13q10 -8 14.5 -18.5t4.5 -30.5v-773z" />
    <glyph glyph-name="v" unicode="v" horiz-adv-x="924" 
d="M913 856q0 -14 -4 -27t-12 -30l-319 -762q-11 -25 -35 -36t-82 -11q-57 0 -81 11t-34 36l-319 758q-17 34 -17 57q0 11 5 17.5t12 11.5q11 8 36.5 14t67.5 6q37 0 60.5 -4t37.5 -12q11 -6 19 -19t14 -28l203 -545l203 541q6 15 14.5 28.5t17.5 20.5q13 9 37 13.5t64 4.5
q43 0 64.5 -5.5t29.5 -10.5t13 -12.5t5 -16.5z" />
    <glyph glyph-name="w" unicode="w" horiz-adv-x="1372" 
d="M1362 856q0 -14 -5 -27t-11 -30l-299 -762q-11 -26 -35 -36.5t-82 -10.5q-59 0 -84 10t-33 35l-135 397l-154 -395q-5 -13 -13.5 -22t-22 -14.5t-33.5 -8t-49 -2.5q-57 0 -83 11t-34 34l-264 762q-7 18 -11 30.5t-4 24.5q0 9 5 16.5t10 12.5q23 20 100 20q74 0 100 -16
q10 -6 17 -19t12 -28l176 -572l164 396l-47 135q-6 18 -9 30.5t-3 24.5q0 17 14 29q11 8 32.5 14t63.5 6q22 0 38 -1.5t27 -4t18.5 -5.5t14.5 -7q15 -8 25 -37l166 -555l188 543q13 35 31 49q14 9 37 13.5t61 4.5q41 0 63.5 -5t33.5 -13q14 -11 14 -27z" />
    <glyph glyph-name="x" unicode="x" horiz-adv-x="930" 
d="M911 37q0 -21 -20 -31q-11 -6 -36 -10t-62 -4q-31 0 -53.5 1.5t-39 6t-29 13t-22.5 22.5l-188 272l-193 -270q-10 -15 -21.5 -23.5t-27 -13.5t-37 -6.5t-51.5 -1.5q-38 0 -60.5 5t-33.5 11q-8 5 -13.5 11.5t-5.5 17.5q0 14 11 31t26 38l269 355l-238 323q-15 22 -27 39
t-12 31q0 21 19 31q11 6 35.5 11t62.5 5q31 0 53 -1.5t38.5 -6t28 -13t21.5 -22.5l164 -237l166 235q10 15 21 23.5t26.5 13.5t37 6.5t52.5 1.5q35 0 58 -4t32 -10q8 -5 13.5 -12.5t5.5 -18.5q0 -14 -11 -31t-28 -39l-238 -317l268 -363q19 -24 29 -40.5t10 -28.5z" />
    <glyph glyph-name="y" unicode="y" horiz-adv-x="967" 
d="M947 812q-11 -24 -17 -40l-518 -1126q-14 -31 -38.5 -41.5t-78.5 -10.5q-60 0 -88.5 13t-28.5 41q0 15 8.5 35.5t16.5 35.5l172 367l-338 690q-11 22 -18 39t-7 31q0 25 28.5 40t94.5 15q58 0 83.5 -10.5t37.5 -36.5l240 -516l227 510q12 28 36 40.5t81 12.5
q69 0 93.5 -13.5t24.5 -35.5q0 -16 -11 -40z" />
    <glyph glyph-name="z" unicode="z" horiz-adv-x="821" 
d="M805 137q0 -31 -5.5 -62t-15.5 -48q-9 -16 -24.5 -21.5t-44.5 -5.5h-619q-43 0 -57 14q-12 11 -17.5 27t-5.5 47q0 19 2 32.5t6.5 25t12.5 23t20 26.5l418 512h-377q-38 0 -49 8q-6 5 -9 13t-3 28q0 31 5 61.5t17 50.5q10 16 25 20.5t43 4.5h578q21 0 34.5 -4t22.5 -10
q12 -10 17 -26.5t5 -47.5q0 -18 -1.5 -31.5t-5.5 -25t-10.5 -21.5t-16.5 -22l-422 -519h415q20 0 30.5 -1.5t17.5 -4.5q8 -5 11 -14t3 -29z" />
    <glyph glyph-name="braceleft" unicode="{" horiz-adv-x="723" 
d="M705 -297q0 -21 -2 -38t-9 -29t-20.5 -18.5t-36.5 -6.5h-107q-76 0 -135 25.5t-99.5 71.5t-61.5 109.5t-21 139.5q0 48 3 95.5t3 101.5t-8 100.5t-37 75.5q-18 18 -33 27.5t-29.5 14.5t-29 8.5t-29.5 8.5q-21 8 -24.5 33.5t-3.5 60.5t3.5 61t24.5 34q15 5 29.5 8.5
t29 8.5t29.5 14.5t33 27.5q29 29 37 75.5t8 100.5t-3 101.5t-3 95.5q0 76 21 139.5t61.5 109.5t99.5 71.5t135 25.5h107q23 0 36.5 -6.5t20.5 -18.5t9 -29t2 -38q0 -39 -4.5 -61t-17.5 -33t-35 -14t-56 -3h-25q-29 0 -48 -10.5t-29.5 -28t-14.5 -40t-4 -46.5v-244
q0 -46 -5.5 -90.5t-21.5 -84t-43.5 -72t-70.5 -54.5q43 -21 70.5 -53.5t43.5 -72t21.5 -84.5t5.5 -91v-243q0 -24 4 -46.5t14.5 -40t29.5 -28t48 -10.5h25q34 0 56 -3t35 -14.5t17.5 -33.5t4.5 -60z" />
    <glyph glyph-name="bar" unicode="|" horiz-adv-x="518" 
d="M375 -233q0 -19 -3.5 -33.5t-19.5 -28.5q-23 -20 -94 -20q-69 0 -92 20q-16 14 -19.5 28.5t-3.5 33.5v1531q0 19 3.5 33.5t19.5 28.5q23 20 92 20q71 0 94 -20q16 -14 19.5 -28.5t3.5 -33.5v-1531z" />
    <glyph glyph-name="braceright" unicode="}" horiz-adv-x="723" 
d="M698 479q0 -32 -3.5 -57t-24.5 -33q-15 -5 -29.5 -8.5t-29.5 -8.5t-30 -14.5t-32 -27.5q-29 -29 -37 -75.5t-8 -100.5t3 -101.5t3 -95.5q0 -76 -21 -139.5t-61.5 -109.5t-99.5 -71.5t-135 -25.5h-107q-23 0 -36.5 6.5t-20.5 18.5t-9 29t-2 38q0 38 4.5 60t17.5 33.5
t34.5 14.5t56.5 3h23t20 2q44 6 61 40.5t17 82.5v243q0 46 5.5 91t21 84t43 71t71.5 53q-43 22 -70.5 56t-43 74t-21.5 84t-6 87v234q0 68 -27.5 100t-81.5 35q-8 2 -26 2h-25t-13.5 1t-10.5 3q-29 8 -39.5 35t-10.5 72t12.5 68.5t55.5 23.5h107q77 0 136.5 -25.5
t99.5 -70.5t60.5 -107t20.5 -135q0 -50 -3 -99.5t-3 -105.5q0 -51 6.5 -93t26.5 -71q24 -38 58.5 -51t72.5 -20q10 -3 16 -12.5t9 -23.5t4 -30.5t1 -32.5z" />
    <glyph glyph-name="asciitilde" unicode="~" horiz-adv-x="973" 
d="M899 852q0 -64 -15.5 -119t-45.5 -96t-73.5 -64.5t-98.5 -23.5q-51 0 -100.5 20t-94.5 41q-35 17 -65.5 32t-71.5 15q-26 0 -42 -8.5t-26.5 -22t-16.5 -31.5t-11 -36q-5 -17 -19.5 -22t-34.5 -5h-71q-22 0 -33 11q-5 5 -6.5 11.5t-1.5 14.5q0 64 18.5 119.5t50.5 95.5
t75 63t93 23q27 0 49 -3t42 -8.5t38.5 -13.5t38.5 -18q25 -12 46 -23.5t40 -21t36 -15t34 -5.5q27 0 43.5 9t26.5 23t15.5 31t10.5 33q6 17 17 24t32 7h80q23 0 33 -10q5 -5 6.5 -12t1.5 -15z" />
    <glyph glyph-name="Euro" unicode="&#x20ac;" horiz-adv-x="1130" 
d="M1118 106q0 -11 -5 -20t-17 -18q-14 -12 -47.5 -27.5t-79 -29t-101 -22.5t-112.5 -9q-105 0 -194.5 28.5t-160.5 83.5t-121.5 136t-76.5 186h-135q-16 0 -23 1.5t-10 4.5q-6 6 -6 16q0 5 0.5 12t3.5 19q5 15 11 35.5t17 34.5t26 18t40 4h51v74q0 23 0.5 47.5t3.5 50.5
h-114q-16 0 -23 1.5t-10 4.5q-6 6 -6 17q0 5 0.5 11.5t3.5 18.5q5 16 11 36t17 34t26 18.5t40 4.5h82q28 99 78.5 176t119 130.5t152 81t178.5 27.5q56 0 102 -5t83 -13.5t66 -18.5t52 -20q39 -17 57.5 -32t18.5 -34q0 -17 -6.5 -37.5t-22.5 -48.5q-20 -35 -33 -47t-30 -12
q-11 0 -26 5t-31.5 12t-34.5 15t-35 13q-26 8 -61.5 15.5t-87.5 7.5q-71 0 -127 -25t-100 -72t-70 -118h495q16 0 23 -2t10 -5q6 -6 6 -16q0 -5 -0.5 -11.5t-3.5 -19.5q-5 -15 -11.5 -35t-17.5 -34t-25.5 -18.5t-39.5 -4.5h-465q-2 -23 -4 -47.5t-2 -50.5q0 -19 2 -37t2 -37
h459q15 0 22 -1.5t10 -4.5q7 -7 7 -16q0 -5 -0.5 -12t-4.5 -19q-5 -16 -11 -36t-17 -34t-26 -18t-40 -4h-373q31 -85 85.5 -135.5t119.5 -67.5q27 -7 50.5 -10t47 -3.5t47 1.5t50.5 6q49 8 78 15.5t45 12.5q14 5 25.5 10t31.5 5t37 -20t31 -46q14 -23 19 -42.5t5 -33.5z" />
    <glyph glyph-name="quotesinglbase" unicode="&#x201a;" horiz-adv-x="446" 
d="M373 209q0 -16 -3 -27.5t-10 -29.5l-114 -312q-7 -19 -16.5 -30t-23 -16.5t-31 -7t-40.5 -1.5q-46 0 -72 9.5t-26 37.5q0 14 2.5 25t5.5 26l72 307q4 21 12 34.5t23.5 21.5t39.5 11t62 3q40 0 63.5 -5t36 -13t16 -17t3.5 -16z" />
    <glyph glyph-name="florin" unicode="&#x192;" 
d="M1036 1278q0 -16 -9 -36.5t-23 -39.5q-14 -21 -33.5 -39t-42.5 -18q-17 0 -30.5 6t-29.5 12q-21 10 -42 16.5t-52 6.5q-50 0 -82.5 -21.5t-53 -54.5t-32 -72.5t-18.5 -76.5l-15 -68h185q20 0 30.5 -1.5t16.5 -4.5q8 -6 11 -14.5t3 -28.5q0 -31 -5.5 -62.5t-14.5 -48.5
q-10 -17 -26 -21.5t-44 -4.5h-197l-180 -830q-5 -22 -10 -33t-16 -20q-31 -25 -105 -25q-37 0 -57 6.5t-29 14.5q-12 9 -16 23t2 42l182 822h-70q-20 0 -30 1.5t-17 4.5q-8 6 -11 14.5t-3 28.5q0 31 5 61.5t18 50.5q9 16 24 20.5t43 4.5h82l37 166q14 63 46 121t82.5 102.5
t119.5 71t157 26.5q48 0 97 -7.5t86 -24.5q41 -19 54 -36.5t13 -33.5z" />
    <glyph glyph-name="quotedblbase" unicode="&#x201e;" horiz-adv-x="809" 
d="M373 209q0 -16 -3 -27.5t-10 -29.5l-114 -312q-7 -19 -16.5 -30t-23 -16.5t-31 -7t-40.5 -1.5q-46 0 -72 9.5t-26 37.5q0 14 2.5 25t5.5 26l72 307q4 21 12 34.5t23.5 21.5t39.5 11t62 3q40 0 63.5 -5t36 -13t16 -17t3.5 -16zM735 209q0 -16 -3 -27.5t-9 -29.5l-115 -312
q-7 -19 -16.5 -30t-22.5 -16.5t-30.5 -7t-40.5 -1.5q-47 0 -73 9.5t-26 37.5q0 14 2.5 25t6.5 26l71 307q5 21 13 34.5t23 21.5t39 11t62 3q40 0 63.5 -5t36 -13t16 -17t3.5 -16z" />
    <glyph glyph-name="ellipsis" unicode="&#x2026;" horiz-adv-x="1614" 
d="M416 129q0 -30 -12 -56.5t-32.5 -47t-47 -32t-54.5 -11.5t-54.5 11.5t-47 32t-33 47t-12.5 56.5q0 28 11.5 55t31 48t46 34t56.5 13q28 0 55 -12t47.5 -33t33 -48t12.5 -57zM954 129q0 -30 -12 -56.5t-32 -47t-46.5 -32t-54.5 -11.5q-29 0 -55.5 11.5t-46.5 32t-32.5 47
t-12.5 56.5q0 28 11.5 55t31 48t46 34t56.5 13q28 0 55 -12t47 -33t32.5 -48t12.5 -57zM1491 129q0 -30 -12 -56.5t-32.5 -47t-47.5 -32t-56 -11.5q-27 0 -53.5 11.5t-46.5 32t-32.5 47t-12.5 56.5q0 28 11.5 55t31.5 48t46 34t56 13q28 0 54.5 -12t47.5 -33t33.5 -48
t12.5 -57z" />
    <glyph glyph-name="dagger" unicode="&#x2020;" horiz-adv-x="913" 
d="M848 958q0 -30 -5 -61.5t-16 -48.5t-26 -22t-43 -5h-185v-899q0 -21 -4.5 -30.5t-13.5 -18.5t-33 -14.5t-67 -5.5q-41 0 -64 5t-33 13q-11 8 -14.5 18.5t-3.5 30.5v901h-215q-20 0 -30.5 1.5t-16.5 4.5q-8 7 -11.5 15t-3.5 28q0 31 5.5 62t17.5 51q9 16 25.5 20.5
t42.5 4.5h186v323q0 22 3.5 32.5t12.5 18.5q11 8 34 13.5t65 5.5t66.5 -5.5t33.5 -13.5q11 -8 13.5 -18.5t2.5 -32.5v-323h215q20 0 30.5 -1.5t17.5 -5.5q8 -6 11 -14.5t3 -28.5z" />
    <glyph glyph-name="daggerdbl" unicode="&#x2021;" horiz-adv-x="928" 
d="M856 354q0 -31 -5.5 -62t-16.5 -48q-10 -17 -26 -22t-42 -5h-186v-295q0 -21 -4 -31t-13 -18q-11 -9 -34.5 -14.5t-65.5 -5.5t-65.5 5t-32.5 13q-10 8 -13.5 18.5t-3.5 30.5v297h-215q-20 0 -30.5 1.5t-16.5 4.5q-8 6 -11 14.5t-3 28.5q0 31 5 62t17 51q9 15 24.5 19.5
t43.5 4.5h186v447h-215q-20 0 -30.5 1.5t-16.5 4.5q-8 6 -11 14.5t-3 28.5q0 31 5 62t17 51q9 15 24.5 19.5t43.5 4.5h184v295q0 22 4.5 32.5t14.5 18.5q9 8 32.5 13.5t63.5 5.5q43 0 67 -5.5t33 -13.5q11 -9 15 -19t4 -32v-295h215q20 0 30.5 -1.5t16.5 -4.5q8 -6 11 -14.5
t3 -28.5q0 -31 -5.5 -62t-16.5 -48q-10 -17 -26 -22t-42 -5h-186v-447h215q20 0 30.5 -1.5t16.5 -4.5q8 -6 11 -14.5t3 -28.5z" />
    <glyph glyph-name="circumflex" unicode="&#x2c6;" horiz-adv-x="1024" 
d="M846 1032q0 -17 -15.5 -26t-50.5 -9h-55q-22 0 -37 9.5t-29 23.5l-147 162l-147 -162q-17 -18 -37 -25.5t-52 -7.5h-49q-28 0 -39.5 10t-11.5 25q0 16 12 31.5t33 40.5l180 203q13 15 23.5 25.5t22.5 17t27 9.5t38 3t38 -3t26.5 -9t21.5 -16t23 -25l180 -203
q23 -26 34 -42t11 -32z" />
    <glyph glyph-name="perthousand" unicode="&#x2030;" horiz-adv-x="2376" 
d="M512 1059q0 80 -35 127t-98 47q-60 0 -96.5 -47t-36.5 -127q0 -81 35 -128.5t98 -47.5q60 0 96.5 47.5t36.5 128.5zM1382 317q0 81 -35 128t-98 47q-60 0 -96.5 -47t-36.5 -128q0 -80 35 -128t98 -48q30 0 54.5 12.5t42 35.5t27 55.5t9.5 72.5zM2130 317q0 81 -35 128
t-98 47q-60 0 -96.5 -47t-36.5 -128q0 -80 35 -128t98 -48q30 0 54.5 12.5t42 35.5t27 55.5t9.5 72.5zM711 1059q0 -77 -25 -140t-69 -108t-105 -69.5t-133 -24.5t-133 24.5t-105.5 69t-69 107.5t-24.5 141q0 77 24.5 140t69 108t105.5 69.5t133 24.5q71 0 132 -24.5
t105.5 -69t69.5 -107.5t25 -141zM1276 1356q0 -13 -6.5 -29t-20.5 -41l-669 -1243q-8 -15 -17 -28t-18 -19q-13 -8 -32 -12t-56 -4t-56 4.5t-30 9.5t-16 13t-5 18q0 12 6.5 28t20.5 41l670 1243q8 16 16.5 28.5t17.5 18.5q13 8 32 12.5t56 4.5q38 0 56.5 -5t29.5 -10t16 -13
t5 -17zM1581 317q0 -77 -24.5 -140t-69 -108t-105.5 -69.5t-133 -24.5t-132.5 24.5t-105 69.5t-69 108t-24.5 140t24.5 140t69 108t105 69.5t132.5 24.5t132.5 -24.5t105 -69t69.5 -107.5t25 -141zM2329 317q0 -77 -25 -140t-69 -108t-105 -69.5t-133 -24.5t-133 24.5
t-105.5 69.5t-69 108t-24.5 140t24.5 140t69 108t105.5 69.5t133 24.5q71 0 132 -24.5t105.5 -69t69.5 -107.5t25 -141z" />
    <glyph glyph-name="Scaron" unicode="&#x160;" horiz-adv-x="1112" 
d="M1053 399q0 -107 -36.5 -187t-103.5 -133.5t-161 -80.5t-209 -27q-88 0 -156 10.5t-119.5 26.5t-88.5 33.5t-62 32.5q-68 38 -68 69q0 20 12 49t27 52q16 23 30.5 37t33.5 14q11 0 21.5 -2.5t27.5 -11.5q34 -19 68.5 -36.5t73.5 -31.5t84.5 -22.5t102.5 -8.5q59 0 110 11
t88 34t58 60t21 88q0 45 -20.5 77t-57.5 56t-89 43t-114 37l-112 33q-75 21 -139 51.5t-110.5 74.5t-72.5 105t-26 143q0 95 34 170.5t97 128t152 80t198 27.5q69 0 126 -7.5t102 -19t77 -24t51 -21.5q41 -20 54.5 -35t13.5 -30q0 -19 -9.5 -46.5t-23.5 -50.5t-27.5 -36
t-36.5 -13q-20 0 -59 15t-90 32q-21 7 -41.5 12t-44 8.5t-51.5 5t-64 1.5q-56 0 -97 -14.5t-68 -39t-40.5 -57t-13.5 -69.5q0 -41 21 -69.5t58 -50t88 -38.5t110 -35l104 -31q78 -23 145 -53.5t116.5 -76t77.5 -108.5t28 -151zM907 1778q0 -15 -12 -31t-33 -41l-180 -202
q-13 -15 -23.5 -26t-22.5 -17.5t-27 -9.5t-38 -3t-38 3t-26.5 9.5t-21.5 16.5t-23 25l-180 202q-23 26 -34 42.5t-11 31.5q0 17 15.5 26t50.5 9h55q22 0 36.5 -9.5t28.5 -23.5l148 -162l147 162q17 19 36.5 26t51.5 7h50q27 0 39 -9.5t12 -25.5z" />
    <glyph glyph-name="guilsinglleft" unicode="&#x2039;" horiz-adv-x="641" 
d="M508 215q0 -32 -3.5 -51t-9 -29.5t-13 -14t-15.5 -3.5q-17 0 -29 8.5t-26 24.5l-219 260q-13 15 -24 27.5t-19 24.5t-12.5 25t-4.5 31t4.5 31.5t12.5 25.5t19 24.5t24 27.5l219 260q14 15 26 24t29 9q8 0 15.5 -3.5t13 -14.5t9 -30.5t3.5 -50.5q0 -29 -1 -49t-4.5 -35.5
t-9.5 -27t-16 -23.5l-145 -168l145 -168q10 -12 16 -23.5t9.5 -27t4.5 -36t1 -48.5z" />
    <glyph glyph-name="OE" unicode="&#x152;" horiz-adv-x="1960" 
d="M1053 684q0 124 -24 218t-69.5 157.5t-111.5 96t-150 32.5t-150 -32t-111.5 -95.5t-70 -158t-24.5 -218.5q0 -248 93.5 -374t262.5 -126q83 0 149 31.5t111.5 94.5t70 156.5t24.5 217.5zM1939 154q0 -32 -5.5 -68t-16.5 -57q-9 -17 -26.5 -23t-45.5 -6h-682q-45 0 -67 5
t-31 13t-13.5 20.5t-4.5 35.5v37q-69 -66 -161 -103t-204 -37q-134 0 -244.5 48.5t-189 140t-121.5 224t-43 300.5q0 167 43.5 300t123 225.5t190.5 142t247 49.5q116 0 206.5 -40.5t152.5 -109.5v45q0 23 5 35.5t13 20.5q9 9 30.5 14.5t67.5 5.5h705q21 0 31.5 -2.5
t15.5 -5.5q9 -6 11.5 -17t2.5 -28q0 -16 -1.5 -34t-4.5 -35t-7 -32t-9 -24q-11 -19 -27.5 -24t-44.5 -5h-543v-327h486q21 0 31.5 -2.5t15.5 -6.5q9 -8 11.5 -18t2.5 -27q0 -16 -1.5 -34t-4.5 -35t-7 -32t-9 -24q-11 -18 -27.5 -23t-44.5 -5h-453v-424h586q22 0 32 -2.5
t15 -5.5q9 -7 11.5 -17.5t2.5 -27.5z" />
    <glyph glyph-name="Zcaron" unicode="&#x17d;" horiz-adv-x="1028" 
d="M1010 154q0 -16 -2 -34t-5 -35.5t-7.5 -32t-8.5 -23.5q-9 -17 -26.5 -23t-45.5 -6h-813q-41 0 -59 18q-20 21 -20 84q0 20 2 34.5t6 26.5t10.5 23.5t15.5 26.5l633 952h-596q-21 0 -31.5 2.5t-15.5 6.5q-9 6 -11.5 17t-2.5 28q0 16 1.5 34t4.5 35t7 31.5t9 23.5
q10 19 27 24t45 5h782q22 0 36 -4.5t24 -13.5q11 -11 15.5 -30.5t4.5 -51.5q0 -20 -2 -34.5t-6 -26.5t-11 -23.5t-16 -26.5l-635 -954h629q22 0 32.5 -2.5t16.5 -7.5q8 -7 10.5 -17.5t2.5 -25.5zM866 1778q0 -15 -12 -31t-33 -41l-180 -202q-13 -15 -23.5 -26t-22.5 -17.5
t-27 -9.5t-38 -3t-38 3t-26.5 9.5t-21.5 16.5t-23 25l-180 202q-23 26 -34 42.5t-11 31.5q0 17 15.5 26t50.5 9h55q22 0 36.5 -9.5t28.5 -23.5l148 -162l147 162q17 19 36.5 26t51.5 7h50q27 0 39 -9.5t12 -25.5z" />
    <glyph glyph-name="quoteleft" unicode="&#x2018;" horiz-adv-x="446" 
d="M410 1333q0 -14 -2.5 -24.5t-6.5 -26.5l-71 -307q-5 -21 -13 -34.5t-23 -21.5t-39.5 -11t-61.5 -3q-40 0 -63.5 5t-36 13t-16 16.5t-3.5 16.5q0 16 3 27.5t9 30.5l115 311q7 19 16.5 30t22.5 16.5t30.5 7t40.5 1.5q47 0 73 -9.5t26 -37.5z" />
    <glyph glyph-name="quoteright" unicode="&#x2019;" horiz-adv-x="446" 
d="M373 1329q0 -15 -3 -27t-10 -30l-114 -311q-7 -20 -16.5 -31t-23 -16.5t-31 -7t-40.5 -1.5q-46 0 -72 9.5t-26 37.5q0 14 2.5 25t5.5 27l72 307q4 21 12 34t23.5 21t39.5 11t62 3q40 0 63.5 -5t36 -12.5t16 -16.5t3.5 -17z" />
    <glyph glyph-name="quotedblleft" unicode="&#x201c;" horiz-adv-x="809" 
d="M410 1333q0 -14 -2.5 -24.5t-6.5 -26.5l-71 -307q-5 -21 -13 -34.5t-23 -21.5t-39.5 -11t-61.5 -3q-40 0 -63.5 5t-36 13t-16 16.5t-3.5 16.5q0 16 3 27.5t9 30.5l115 311q7 19 16.5 30t22.5 16.5t30.5 7t40.5 1.5q47 0 73 -9.5t26 -37.5zM772 1333q0 -14 -2.5 -24.5
t-5.5 -26.5l-72 -307q-5 -21 -12.5 -34.5t-23 -21.5t-40 -11t-61.5 -3q-40 0 -63.5 5t-36 13t-16 16.5t-3.5 16.5q0 16 3 27.5t10 30.5l114 311q7 19 16.5 30t23 16.5t31 7t40.5 1.5q46 0 72 -9.5t26 -37.5z" />
    <glyph glyph-name="quotedblright" unicode="&#x201d;" horiz-adv-x="809" 
d="M373 1329q0 -15 -3 -27t-10 -30l-114 -311q-7 -20 -16.5 -31t-23 -16.5t-31 -7t-40.5 -1.5q-46 0 -72 9.5t-26 37.5q0 14 2.5 25t5.5 27l72 307q4 21 12 34t23.5 21t39.5 11t62 3q40 0 63.5 -5t36 -12.5t16 -16.5t3.5 -17zM735 1329q0 -15 -3 -27t-9 -30l-115 -311
q-7 -20 -16.5 -31t-22.5 -16.5t-30.5 -7t-40.5 -1.5q-47 0 -73 9.5t-26 37.5q0 14 2.5 25t6.5 27l71 307q5 21 13 34t23 21t39 11t62 3q40 0 63.5 -5t36 -12.5t16 -16.5t3.5 -17z" />
    <glyph glyph-name="bullet" unicode="&#x2022;" horiz-adv-x="991" 
d="M827 659q0 -68 -26 -128.5t-71 -105.5t-105.5 -71t-128.5 -26q-69 0 -129.5 26t-105.5 71t-71 105.5t-26 128.5q0 69 26 129.5t71 105.5t105.5 71t129.5 26q68 0 128.5 -26t105.5 -71t71 -105.5t26 -129.5z" />
    <glyph glyph-name="endash" unicode="&#x2013;" horiz-adv-x="1024" 
d="M1004 485q0 -34 -6 -67.5t-21 -55.5q-17 -26 -64 -26h-831q-34 0 -47 8q-17 11 -17 55q0 34 6 68t21 55q17 27 64 27h831q34 0 47 -8q9 -7 13 -20t4 -36z" />
    <glyph glyph-name="emdash" unicode="&#x2014;" horiz-adv-x="2048" 
d="M2028 485q0 -34 -6 -67.5t-21 -55.5q-17 -26 -64 -26h-1855q-34 0 -47 8q-17 11 -17 55q0 34 6 68t21 55q17 27 64 27h1855q34 0 47 -8q9 -7 13 -20t4 -36z" />
    <glyph glyph-name="tilde" unicode="&#x2dc;" horiz-adv-x="1024" 
d="M836 1257q0 -23 -5.5 -47t-14.5 -46t-20.5 -41.5t-23.5 -32.5q-32 -36 -67.5 -54t-81.5 -18q-41 0 -71 12.5t-54 26.5q-26 15 -50.5 29t-50.5 14q-15 0 -25.5 -5t-17 -12.5t-11.5 -17t-9 -18.5q-6 -14 -17 -22.5t-32 -8.5h-49q-48 0 -48 49q0 6 0.5 13.5t4.5 23.5
q9 39 25.5 72t41 57t56.5 37.5t73 13.5q42 0 73.5 -12.5t57.5 -28.5q25 -14 50 -28.5t53 -14.5q23 0 37.5 15t25.5 42q8 19 20.5 28t38.5 9h37q26 0 40 -7.5t14 -27.5z" />
    <glyph glyph-name="trademark" unicode="&#x2122;" horiz-adv-x="1763" 
d="M754 1350q0 -11 -1 -25t-3.5 -28t-5.5 -26.5t-7 -19.5q-8 -12 -20.5 -16t-32.5 -4h-180v-592q0 -14 -3 -21t-9 -12q-18 -14 -78 -14q-63 0 -78 12q-9 6 -11.5 12.5t-2.5 22.5v592h-199q-16 0 -24 1.5t-13 4.5q-8 5 -11 11t-3 20q0 10 1 24.5t3 28.5t5 26t7 19
q8 12 20.5 16t32.5 4h561q16 0 24 -1.5t13 -4.5q8 -5 11.5 -10.5t3.5 -19.5zM1608 639q0 -16 -2.5 -22.5t-10.5 -12.5t-28 -9t-47 -3q-31 0 -51.5 3t-28.5 9t-10.5 12.5t-2.5 22.5v451l-118 -203q-5 -8 -10.5 -14t-15 -9.5t-24 -5.5t-36.5 -2q-23 0 -38 2t-24 5.5t-14.5 9.5
t-9.5 14l-113 192v-440q0 -16 -2 -22.5t-10 -12.5t-28 -9t-48 -3q-31 0 -51.5 3t-28.5 9t-10 12.5t-2 22.5v639l-19 31q-6 9 -13 20.5t-7 24.5q0 16 14 24q8 5 32.5 10t55.5 5q37 0 63 -6t36 -21l215 -328l184 305q9 14 14.5 21t12.5 12q11 8 33 12.5t53 4.5t48 -4t25 -9
q17 -9 17 -34v-707z" />
    <glyph glyph-name="scaron" unicode="&#x161;" horiz-adv-x="840" 
d="M807 272q0 -71 -29 -125.5t-80 -91.5t-121 -56t-153 -19q-64 0 -117.5 8t-96 19t-74 24t-50.5 24q-32 19 -42.5 32.5t-10.5 29.5q0 14 7 33.5t19 39.5q14 23 27.5 34.5t30.5 11.5q11 0 24.5 -4.5t27 -10.5t26.5 -12t24 -10q16 -6 38.5 -13t49 -13t56 -9.5t59.5 -3.5
q69 0 109 23.5t40 68.5q0 22 -8 38.5t-26.5 29t-47.5 21t-71 15.5l-84 15q-55 9 -106 27.5t-90.5 49.5t-63 76t-23.5 107q0 68 27.5 120.5t76.5 88.5t116.5 54.5t146.5 18.5q77 0 147 -12.5t123 -32.5q37 -14 49.5 -28t12.5 -29t-4.5 -30.5t-12.5 -37.5q-8 -21 -20 -38
t-35 -17q-25 0 -50 9.5t-57 17.5q-35 8 -74.5 15t-90.5 7q-63 0 -96.5 -23t-33.5 -65q0 -37 41 -59t107 -33l96 -16q60 -10 112.5 -27.5t91 -48t61 -77.5t22.5 -116zM775 1327q0 -15 -12 -31t-33 -41l-180 -202q-13 -15 -23.5 -26t-22.5 -17.5t-27 -9.5t-38 -3t-38 3
t-26.5 9.5t-21.5 16.5t-23 25l-180 202q-23 26 -34 42.5t-11 31.5q0 17 15.5 26t50.5 9h55q22 0 36.5 -9.5t28.5 -23.5l148 -162l147 162q17 19 36.5 26t51.5 7h50q27 0 39 -9.5t12 -25.5z" />
    <glyph glyph-name="guilsinglright" unicode="&#x203a;" horiz-adv-x="641" 
d="M508 518q0 -18 -4.5 -31t-12.5 -25t-18.5 -24.5t-23.5 -27.5l-220 -260q-14 -16 -26 -24.5t-29 -8.5q-8 0 -15.5 3.5t-13 14t-9 29.5t-3.5 51q0 28 1 48.5t4.5 36t9.5 27t16 23.5l145 168l-145 168q-10 12 -16 23.5t-9.5 27t-4.5 35.5t-1 49q0 31 3.5 50.5t9 30.5
t13 14.5t15.5 3.5q17 0 29 -9t26 -24l220 -260q13 -15 23.5 -27.5t18.5 -24.5t12.5 -25.5t4.5 -31.5z" />
    <glyph glyph-name="oe" unicode="&#x153;" horiz-adv-x="1628" 
d="M733 446q0 59 -14 109.5t-41 87t-67 57.5t-91 21t-90.5 -20.5t-67.5 -57t-42.5 -87t-14.5 -110.5q0 -59 14.5 -109t42 -87t67.5 -57.5t91 -20.5t90.5 20.5t66.5 57t41.5 86.5t14.5 110zM1339 539q-2 47 -15.5 84.5t-37.5 63.5t-57 40t-72 14q-85 0 -135.5 -54t-63.5 -148
h381zM1565 467q0 -20 -1.5 -32.5t-4.5 -21t-7.5 -13.5t-9.5 -9q-11 -9 -31.5 -14.5t-60.5 -5.5h-492q7 -42 26 -78t49 -62t71 -40.5t92 -14.5q48 0 82.5 6.5t58.5 14.5q26 8 46.5 16t43.5 8q25 0 37.5 -16.5t24.5 -42.5q11 -22 16.5 -37t5.5 -31q0 -15 -11 -30.5t-48 -30.5
q-23 -10 -50 -19.5t-61 -17t-76.5 -12t-95.5 -4.5q-102 0 -184 37.5t-139 109.5q-59 -77 -143 -112t-183 -35q-97 0 -179.5 33.5t-142.5 94.5t-94 147t-34 191t33.5 191t93.5 147.5t142.5 95t180.5 33.5q97 0 180.5 -36t143.5 -111q111 147 315 147q100 0 176 -33.5t127 -93
t77 -141t26 -178.5z" />
    <glyph glyph-name="zcaron" unicode="&#x17e;" horiz-adv-x="821" 
d="M805 137q0 -31 -5.5 -62t-15.5 -48q-9 -16 -24.5 -21.5t-44.5 -5.5h-619q-43 0 -57 14q-12 11 -17.5 27t-5.5 47q0 19 2 32.5t6.5 25t12.5 23t20 26.5l418 512h-377q-38 0 -49 8q-6 5 -9 13t-3 28q0 31 5 61.5t17 50.5q10 16 25 20.5t43 4.5h578q21 0 34.5 -4t22.5 -10
q12 -10 17 -26.5t5 -47.5q0 -18 -1.5 -31.5t-5.5 -25t-10.5 -21.5t-16.5 -22l-422 -519h415q20 0 30.5 -1.5t17.5 -4.5q8 -5 11 -14t3 -29zM779 1327q0 -15 -12 -31t-33 -41l-180 -202q-13 -15 -23.5 -26t-22.5 -17.5t-27 -9.5t-38 -3t-38 3t-26.5 9.5t-21.5 16.5t-23 25
l-180 202q-23 26 -34 42.5t-11 31.5q0 17 15.5 26t50.5 9h55q22 0 36.5 -9.5t28.5 -23.5l148 -162l147 162q17 19 36.5 26t51.5 7h50q27 0 39 -9.5t12 -25.5z" />
    <glyph glyph-name="Ydieresis" unicode="&#x178;" horiz-adv-x="1167" 
d="M1157 1333q0 -11 -7.5 -26t-23.5 -39l-424 -682v-523q0 -23 -4 -33t-12 -18q-11 -9 -37 -14.5t-71 -5.5q-44 0 -70 5t-35 13q-9 10 -12.5 20t-3.5 31v523l-414 682q-17 26 -25 40t-8 25q0 21 19 31q9 5 31 11.5t67 6.5q30 0 52 -1.5t37.5 -6.5t27 -14.5t20.5 -24.5
l322 -536l323 534q10 16 20.5 25.5t25.5 15t35 7t50 1.5q45 0 68 -5.5t31 -10.5t13 -12.5t5 -18.5zM543 1584q0 -27 -10 -50.5t-27 -41t-41.5 -27.5t-52.5 -10q-27 0 -51 10t-41.5 27t-28 40t-10.5 49q0 28 9.5 52.5t27 42.5t41 28.5t51.5 10.5t52 -10t42 -28t28.5 -42
t10.5 -51zM883 1584q0 -27 -10 -50.5t-27 -41t-41.5 -27.5t-52.5 -10q-27 0 -51 10t-41.5 27t-28 40t-10.5 49q0 28 9.5 52.5t27 42.5t41 28.5t51.5 10.5t52 -10t42 -28t28.5 -42t10.5 -51z" />
    <glyph glyph-name="nonbreakingspace" unicode="&#xa0;" horiz-adv-x="512" 
 />
    <glyph glyph-name="exclamdown" unicode="&#xa1;" horiz-adv-x="451" 
d="M342 49q0 -20 -4.5 -30.5t-13.5 -18.5q-10 -8 -33.5 -13t-65.5 -5t-65.5 5t-32.5 13t-13.5 17.5t-4.5 29.5v852q0 20 3.5 29.5t12.5 17.5q11 8 34.5 14.5t65.5 6.5t65.5 -5.5t33.5 -13.5q9 -8 13.5 -18.5t4.5 -30.5v-850zM377 1235q0 -29 -12 -56t-32.5 -47.5
t-47.5 -32.5t-58 -12q-30 0 -57.5 12t-49 32t-34 47t-12.5 57t12.5 56.5t33 46t48 31t57.5 11.5q31 0 58.5 -11.5t48.5 -31t33 -46t12 -56.5z" />
    <glyph glyph-name="cent" unicode="&#xa2;" horiz-adv-x="827" 
d="M444 926q-31 -11 -56.5 -34.5t-44 -56.5t-28.5 -74.5t-10 -88.5q0 -99 38.5 -164t100.5 -84v502zM807 342q0 -15 -11 -29.5t-40 -31.5q-35 -22 -84.5 -42.5t-108.5 -29.5v-133q0 -12 -1.5 -20.5t-7.5 -14t-17.5 -8t-32.5 -2.5q-40 0 -50 10.5t-10 32.5v133q-77 8 -145 41
t-119 91t-80.5 141.5t-29.5 191.5q0 91 27 170.5t76 141t118 101t153 50.5v141q0 12 2 21t8 14t18 7.5t32 2.5q21 0 32.5 -2.5t17.5 -7.5t7.5 -13t1.5 -20v-141q57 -8 95 -20t73 -27q23 -10 37 -19t21.5 -17.5t9.5 -16.5t2 -15q0 -31 -25 -80q-12 -25 -25 -43t-36 -18
q-20 0 -35.5 9.5t-40.5 20.5q-20 10 -38 15t-38 8v-516q17 2 32.5 7t29.5 11q25 11 42.5 24t39.5 13q23 0 38.5 -16t30.5 -39q14 -22 22.5 -41.5t8.5 -34.5z" />
    <glyph glyph-name="sterling" unicode="&#xa3;" horiz-adv-x="1184" 
d="M1157 1221q0 -27 -31 -88q-14 -28 -28 -43t-31 -15q-19 0 -40 10.5t-38 16.5q-25 9 -64 20t-98 11q-55 0 -96 -21t-70.5 -56t-48.5 -79.5t-30 -91.5l-27 -111h373q23 0 31.5 -3.5t13.5 -8.5q3 -5 4.5 -9.5t1.5 -15.5q0 -13 -4.5 -32.5t-11 -39.5t-13.5 -37t-12 -26
q-11 -15 -28 -21t-46 -6h-356l-88 -368h577q22 0 33.5 -1.5t18.5 -6.5q8 -7 11 -16t3 -29q0 -15 -2 -33t-5.5 -35t-8.5 -32t-11 -25q-11 -17 -26.5 -23t-44.5 -6h-844q-22 0 -33.5 1.5t-17.5 6.5q-8 6 -11.5 15.5t-3.5 29.5q0 15 2 33t5.5 35t8.5 32t11 25q11 17 27 23t45 6
h28l88 368h-63q-23 0 -31.5 4t-13.5 9q-3 5 -4.5 9t-1.5 15q0 13 4.5 32.5t10.5 40t13 37.5t13 26q11 15 27.5 20.5t45.5 5.5h47l31 123q26 105 66 187.5t98.5 139t137.5 86t184 29.5q86 0 153 -17t103 -36q35 -18 51 -32.5t16 -32.5z" />
    <glyph glyph-name="currency" unicode="&#xa4;" horiz-adv-x="1219" 
d="M895 692q0 61 -23 115t-62.5 94t-91.5 63t-110 23q-57 0 -108.5 -23.5t-90.5 -63.5t-62 -93.5t-23 -114.5t23 -114.5t62 -93.5t90.5 -63.5t108.5 -23.5q58 0 110 23t91.5 63t62.5 93.5t23 115.5zM1147 268q0 -12 -11 -25.5t-28 -33.5q-29 -31 -46.5 -42t-27.5 -11
q-11 0 -18.5 3t-20.5 15l-114 115q-59 -38 -127 -61t-144 -23q-75 0 -143 22t-127 62l-117 -115q-12 -11 -20 -14.5t-19 -3.5q-9 0 -26.5 11t-46.5 42q-17 20 -28 33.5t-11 25.5q0 11 3 19t15 20l117 113q-40 59 -62 128t-22 144q0 76 22 145t62 128l-117 112
q-12 13 -15 20.5t-3 18.5q0 13 11 26.5t28 33.5q29 31 46.5 42t26.5 11q11 0 19 -4t20 -15l117 -114q59 40 127 62t143 22q76 0 144 -23t127 -61l114 114q13 13 20.5 16t18.5 3q10 0 27.5 -11t46.5 -42q17 -20 28 -33.5t11 -26.5q0 -11 -3 -18.5t-16 -20.5l-116 -114
q40 -59 62 -127t22 -144q0 -75 -22 -143t-62 -127l116 -115q13 -12 16 -20t3 -19z" />
    <glyph glyph-name="yen" unicode="&#xa5;" horiz-adv-x="1145" 
d="M1135 1223q0 -11 -8 -26t-23 -40l-256 -407h117q15 0 23.5 -2.5t15.5 -10.5q7 -11 2 -30q-7 -22 -14.5 -44t-16.5 -36q-11 -16 -26 -20.5t-40 -4.5h-153l-62 -98v-49h271q15 0 23.5 -2.5t15.5 -10.5q7 -11 2 -30q-7 -22 -14.5 -44t-16.5 -36q-11 -16 -26 -20.5t-40 -4.5
h-215v-244q0 -23 -4 -33t-12 -18q-11 -9 -37.5 -14.5t-71.5 -5.5q-43 0 -69 5t-35 13q-9 10 -12.5 20t-3.5 31v246h-271q-15 0 -24 2t-15 10q-3 5 -4 12.5t2 18.5q6 22 14 44t17 36q11 16 26 20.5t39 4.5h216v49l-62 98h-209q-15 0 -24 2t-15 10q-3 5 -4 12.5t2 18.5
q6 22 14 44t17 36q11 15 26 20t39 5h62l-252 405q-17 26 -25 40.5t-8 25.5q0 20 19 30q9 5 31 12t67 7q30 0 52 -1.5t38.5 -6.5t28 -14.5t20.5 -24.5l307 -506l312 504q10 16 20.5 25.5t25 15t35 7t50.5 1.5q45 0 68.5 -6t31.5 -11t13.5 -12t5.5 -18z" />
    <glyph glyph-name="brokenbar" unicode="&#xa6;" horiz-adv-x="518" 
d="M375 -233q0 -19 -3.5 -33.5t-19.5 -28.5q-23 -20 -94 -20q-69 0 -92 20q-16 14 -19.5 28.5t-3.5 33.5v608q0 18 3.5 32.5t19.5 28.5q22 21 92 21q72 0 94 -21q16 -14 19.5 -28.5t3.5 -32.5v-608zM375 690q0 -18 -3.5 -32.5t-19.5 -28.5q-22 -21 -94 -21q-70 0 -92 21
q-16 14 -19.5 28.5t-3.5 32.5v608q0 19 3.5 33.5t19.5 28.5q23 20 92 20q71 0 94 -20q16 -14 19.5 -28.5t3.5 -33.5v-608z" />
    <glyph glyph-name="section" unicode="&#xa7;" horiz-adv-x="969" 
d="M684 639q0 62 -55.5 100t-167.5 49q-78 0 -122 -36t-44 -95q0 -43 23 -71.5t59.5 -46.5t82.5 -27t91 -12q62 5 97.5 41t35.5 98zM909 180q0 -72 -30 -132t-86 -103.5t-136 -67.5t-180 -24q-68 0 -122.5 8.5t-97.5 21t-75 26.5t-53 25q-23 12 -37 22.5t-22 19.5
t-10.5 16.5t-2.5 15.5q0 33 27 74q17 26 34 41.5t42 15.5q23 0 50 -14t52 -25q12 -5 34 -13t50.5 -15.5t62.5 -13t70 -5.5q87 0 138 30.5t51 90.5q0 34 -16.5 57.5t-43 39.5t-58 27t-61.5 19q-72 20 -117 33t-73 23q-105 34 -164 97t-59 159q0 69 31 128t112 99
q-69 38 -106 92.5t-37 132.5q0 75 30 134t84 100.5t128.5 63.5t162.5 22q78 0 149 -13t136 -40q43 -19 60.5 -35t17.5 -35q0 -16 -5 -34t-16 -40q-12 -25 -24 -41t-37 -16q-19 0 -40.5 7.5t-49.5 16.5q-32 11 -84.5 23t-120.5 12q-82 0 -122 -31t-40 -77q0 -35 21 -55.5
t53 -34.5q17 -8 51.5 -18t74 -19.5t77 -18.5t59.5 -14q55 -15 104 -35.5t85.5 -52t57.5 -76t21 -106.5q0 -92 -39.5 -151.5t-103.5 -94.5q71 -35 107 -93t36 -149z" />
    <glyph glyph-name="dieresis" unicode="&#xa8;" horiz-adv-x="1024" 
d="M473 1133q0 -27 -10 -50.5t-27 -41t-41.5 -27.5t-52.5 -10q-27 0 -51 10t-41.5 27t-28 40t-10.5 49q0 28 9.5 52.5t27 42.5t41 28.5t51.5 10.5t52 -10t42 -28t28.5 -42t10.5 -51zM813 1133q0 -27 -10 -50.5t-27 -41t-41.5 -27.5t-52.5 -10q-27 0 -51 10t-41.5 27t-28 40
t-10.5 49q0 28 9.5 52.5t27 42.5t41 28.5t51.5 10.5t52 -10t42 -28t28.5 -42t10.5 -51z" />
    <glyph glyph-name="copyright" unicode="&#xa9;" horiz-adv-x="1669" 
d="M1108 385q0 -14 -6.5 -23t-22.5 -20q-11 -8 -31.5 -16.5t-50.5 -15.5t-68 -12t-83 -5q-78 0 -145 27t-116 78.5t-76.5 126.5t-27.5 171q0 97 27 172.5t76 128t116 80t148 27.5q32 0 58 -2t48.5 -5.5t43.5 -9.5t42 -14q38 -14 53 -27t15 -28q0 -16 -5 -31t-16 -35
q-12 -23 -22.5 -32t-24.5 -9q-17 0 -35.5 8t-29.5 13q-16 6 -45.5 14t-77.5 8q-41 0 -75 -14t-59 -44.5t-38.5 -79.5t-13.5 -118q0 -68 15.5 -116t42 -78t61.5 -44t73 -14q48 0 76 6t51 15q14 5 26.5 11.5t26.5 6.5q17 0 28.5 -14t20.5 -31q21 -32 21 -55zM1382 700
q0 115 -42 218.5t-115.5 181t-173.5 123t-215 45.5q-116 0 -216 -45t-174 -122.5t-116.5 -181t-42.5 -219.5q0 -115 42.5 -217.5t116.5 -180t173.5 -122.5t214.5 -45q114 0 214 45t174.5 122t117 179.5t42.5 218.5zM1571 700q0 -101 -26.5 -194t-74.5 -174.5t-115.5 -148
t-149 -114.5t-175 -74t-194.5 -26q-102 0 -196 26t-176 73.5t-149.5 114t-115.5 148t-74.5 175t-26.5 194.5t26.5 194.5t74.5 175t115.5 149t149 115t175.5 74t195 26.5t195 -26.5t176 -74t149.5 -115t115.5 -149t74.5 -175t26.5 -194.5z" />
    <glyph glyph-name="ordfeminine" unicode="&#xaa;" horiz-adv-x="786" 
d="M481 961l-127 -11q-45 -3 -66.5 -22.5t-21.5 -50.5q0 -29 19.5 -46.5t56.5 -17.5q21 0 45 5.5t45 19.5t35 37.5t14 58.5v27zM692 547q0 -22 -4.5 -44t-15.5 -42q-11 -19 -27 -25t-45 -6h-416q-15 0 -28 1.5t-19 6.5q-11 8 -13.5 19.5t-2.5 29.5q0 22 4.5 44t15.5 42
q11 19 27 25t45 6h416q15 0 28 -1.5t19 -6.5q11 -8 13.5 -19.5t2.5 -29.5zM670 748q0 -16 -16.5 -25.5t-35.5 -17.5q-37 -17 -65 -17q-25 0 -35.5 20t-21.5 48q-76 -72 -195 -72q-35 0 -70.5 10t-64.5 31.5t-47.5 56.5t-18.5 86q0 55 21 92t57.5 60.5t84.5 35t102 15.5
l116 8v11q0 32 -27 52.5t-85 20.5q-34 0 -69.5 -9.5t-55.5 -18.5q-17 -8 -32 -13.5t-26 -5.5q-15 0 -25 11.5t-20 25.5q-8 14 -12 25t-4 22q0 27 41 45q18 9 38.5 17t47 15t60 11t75.5 4q123 0 190.5 -56.5t67.5 -182.5v-209q0 -31 7 -47t12 -27q6 -12 6 -22z" />
    <glyph glyph-name="guillemotleft" unicode="&#xab;" horiz-adv-x="1004" 
d="M508 215q0 -32 -3.5 -51t-9 -29.5t-13 -14t-15.5 -3.5q-17 0 -29 8.5t-26 24.5l-219 260q-13 15 -24 27.5t-19 24.5t-12.5 25t-4.5 31t4.5 31.5t12.5 25.5t19 24.5t24 27.5l219 260q14 15 26 24t29 9q8 0 15.5 -3.5t13 -14.5t9 -30.5t3.5 -50.5q0 -29 -1 -49t-4.5 -35.5
t-9.5 -27t-16 -23.5l-145 -168l145 -168q10 -12 16 -23.5t9.5 -27t4.5 -36t1 -48.5zM870 215q0 -32 -3 -51t-8.5 -29.5t-13 -14t-16.5 -3.5q-17 0 -29 8.5t-26 24.5l-219 260q-13 15 -24 27.5t-18.5 24.5t-12 25t-4.5 31t4.5 31.5t12 25.5t18.5 24.5t24 27.5l219 260
q14 15 26 24t29 9q9 0 16.5 -3.5t13 -14.5t8.5 -30.5t3 -50.5q0 -29 -1 -49t-4 -35.5t-9 -27t-16 -23.5l-146 -168l146 -168q10 -12 16 -23.5t9 -27t4 -36t1 -48.5z" />
    <glyph glyph-name="logicalnot" unicode="&#xac;" 
d="M922 420q0 -22 -4 -32t-15 -19q-9 -8 -30.5 -13.5t-61.5 -5.5q-43 0 -63 6.5t-31 14.5q-9 8 -13 18.5t-4 32.5v262h-544q-22 0 -33 3.5t-19 12.5q-8 11 -14 30.5t-6 57.5q0 39 5 58t13 28q10 11 20 15t32 4h688q26 0 40.5 -5.5t22.5 -15.5q8 -11 12.5 -28t4.5 -56v-368z
" />
    <glyph glyph-name="registered" unicode="&#xae;" horiz-adv-x="1669" 
d="M956 868q0 20 -7 38.5t-23.5 32.5t-43 22t-65.5 8h-117v-217h103q86 0 119.5 32t33.5 84zM1190 362q0 -17 -19 -26q-6 -3 -24 -7.5t-49 -4.5q-28 0 -45.5 1.5t-28.5 5.5t-18.5 10.5t-14.5 16.5l-168 258h-121v-245q0 -14 -3 -21t-9 -12q-9 -8 -26 -11t-46 -3q-30 0 -47 3
t-26 11q-6 5 -9.5 12t-3.5 21v682q0 15 4.5 24.5t10.5 14.5q8 6 24 9t45 3h207q69 0 126 -14t97 -44t62 -76t22 -110q0 -68 -34 -122t-103 -85l170 -241q13 -17 20 -28.5t7 -21.5zM1382 700q0 115 -42 218.5t-115.5 181t-173.5 123t-215 45.5q-116 0 -216 -45t-174 -122.5
t-116.5 -181t-42.5 -219.5q0 -115 42.5 -217.5t116.5 -180t173.5 -122.5t214.5 -45q114 0 214 45t174.5 122t117 179.5t42.5 218.5zM1571 700q0 -101 -26.5 -194t-74.5 -174.5t-115.5 -148t-149 -114.5t-175 -74t-194.5 -26q-102 0 -196 26t-176 73.5t-149.5 114t-115.5 148
t-74.5 175t-26.5 194.5t26.5 194.5t74.5 175t115.5 149t149 115t175.5 74t195 26.5t195 -26.5t176 -74t149.5 -115t115.5 -149t74.5 -175t26.5 -194.5z" />
    <glyph glyph-name="macron" unicode="&#xaf;" horiz-adv-x="1024" 
d="M760.5 1133.5q-5.5 -23.5 -15.5 -41.5q-12 -20 -26 -26.5t-39 -6.5h-365q-15 0 -24 2t-17 4q-11 11 -14.5 23t-3.5 30q0 26 5.5 49t14.5 41q13 20 27 26.5t39 6.5h365q15 0 24 -2t17 -4q11 -11 14.5 -23t3.5 -30q0 -25 -5.5 -48.5z" />
    <glyph glyph-name="macron" unicode="&#x2c9;" horiz-adv-x="1024" 
d="M760.5 1133.5q-5.5 -23.5 -15.5 -41.5q-12 -20 -26 -26.5t-39 -6.5h-365q-15 0 -24 2t-17 4q-11 11 -14.5 23t-3.5 30q0 26 5.5 49t14.5 41q13 20 27 26.5t39 6.5h365q15 0 24 -2t17 -4q11 -11 14.5 -23t3.5 -30q0 -25 -5.5 -48.5z" />
    <glyph glyph-name="degree" unicode="&#xb0;" horiz-adv-x="901" 
d="M582 1106q0 29 -8.5 55.5t-24.5 46.5t-40.5 31.5t-55.5 11.5q-32 0 -57 -11t-42 -30.5t-26 -46t-9 -57.5q0 -30 9 -57t25.5 -47t41 -32t56.5 -12q31 0 55.5 12t41.5 32t25.5 47t8.5 57zM737 1106q0 -61 -21 -115t-59 -94.5t-90 -64t-114 -23.5q-63 0 -116 23t-91.5 63
t-60 93.5t-21.5 115.5q0 61 21 115.5t59.5 94.5t91 63.5t115.5 23.5q62 0 114.5 -23.5t90.5 -63.5t59.5 -93.5t21.5 -114.5z" />
    <glyph glyph-name="plusminus" unicode="&#xb1;" 
d="M924 104q0 -38 -6.5 -57.5t-14.5 -30.5q-8 -9 -18.5 -12.5t-32.5 -3.5h-696q-22 0 -33 3.5t-19 12.5q-8 11 -14 30.5t-6 57.5q0 39 5 58t13 28q10 11 20 15t32 4h700q22 0 32 -4t19 -15q8 -9 13.5 -28t5.5 -58zM924 739q0 -38 -6.5 -57.5t-14.5 -30.5q-8 -9 -18.5 -12.5
t-32.5 -3.5h-238v-264q0 -22 -3.5 -32t-14.5 -20q-9 -8 -30.5 -13t-61.5 -5q-44 0 -63.5 6.5t-30.5 14.5q-10 8 -13.5 18.5t-3.5 32.5v262h-237q-22 0 -33 3.5t-19 12.5q-8 11 -14 30.5t-6 57.5q0 39 5 58t13 28q10 11 20 15t32 4h239v264q0 22 3.5 32.5t13.5 18.5
q11 8 30.5 14.5t63.5 6.5q40 0 61.5 -5.5t30.5 -13.5q11 -9 14.5 -19t3.5 -32v-266h240q22 0 32 -4t19 -15q8 -9 13.5 -28t5.5 -58z" />
    <glyph glyph-name="twosuperior" unicode="&#xb2;" horiz-adv-x="737" 
d="M643 678q0 -22 -4.5 -50t-13.5 -42q-10 -14 -23 -18.5t-35 -4.5h-442q-40 0 -53 20.5t-13 55.5q0 28 9 47t30 41l101 96q76 73 122 121.5t71 82.5t32.5 59.5t7.5 52.5q0 48 -28.5 74t-73.5 26q-42 0 -67.5 -15.5t-45.5 -33.5q-15 -11 -27 -21t-30 -10q-17 0 -33 10
t-27 21q-12 12 -24.5 27t-12.5 30q0 19 11.5 36t29.5 34q14 13 36 28t51 27.5t66 20.5t81 8q56 0 108 -15t92.5 -45.5t64.5 -78t24 -111.5q0 -63 -25.5 -118.5t-65 -105.5t-87.5 -95.5t-93 -88.5q-3 -3 -12 -11t-12 -11h254q18 0 27.5 -1.5t15.5 -6.5q14 -8 14 -35z" />
    <glyph glyph-name="threesuperior" unicode="&#xb3;" horiz-adv-x="737" 
d="M618 831q0 -61 -21.5 -107.5t-56.5 -80.5t-80.5 -57.5t-93.5 -37.5t-95 -20t-85 -6q-31 0 -51 2.5t-33 10.5q-17 11 -21.5 26t-4.5 35q0 41 13.5 61.5t57.5 20.5q9 0 22 0.5t26.5 1.5t25.5 2t21 2q30 4 62 14t59 27t44 42t17 60q0 51 -33 80t-102 29h-45q-17 0 -24.5 1.5
t-12.5 4.5q-14 11 -14 39q0 25 5 48t13 38q9 14 20.5 18.5t32.5 4.5h21q68 0 99.5 24t31.5 60q0 37 -24 57t-70 20q-44 0 -75 -13t-57 -30q-11 -8 -22 -15t-27 -7q-15 0 -26 9.5t-25 25.5q-11 12 -19 24.5t-8 28.5q0 12 8.5 23.5t21 22t28 20t29.5 16.5q17 8 35.5 16
t42 14.5t52 10.5t66.5 4q46 0 92 -12.5t83 -38t60 -63.5t23 -89q0 -68 -29 -110.5t-75 -65.5q50 -23 84 -70t34 -121z" />
    <glyph glyph-name="acute" unicode="&#xb4;" horiz-adv-x="1024" 
d="M705 1319q0 -17 -14 -39t-42 -59l-125 -170q-9 -13 -20 -23t-25 -18q-23 -13 -65 -13q-51 0 -71.5 9.5t-20.5 29.5q0 14 6 27t14 27l131 225q20 34 49 41.5t66 7.5q54 0 85.5 -8.5t31.5 -36.5z" />
    <glyph glyph-name="mu" unicode="&#xb5;" horiz-adv-x="1042" 
d="M921.5 30q-4.5 -10 -14.5 -20q-9 -8 -30.5 -13t-63.5 -5t-63.5 5t-30.5 13t-13 19t-4 32v60q-6 -16 -23 -40t-42.5 -46.5t-58.5 -38.5t-72 -16q-42 0 -71.5 12.5t-49 29t-29.5 34t-12 26.5v-410q0 -21 -4.5 -31t-13.5 -18q-11 -9 -34 -14.5t-67 -5.5q-40 0 -62.5 5.5
t-33.5 14.5q-9 8 -13.5 18t-4.5 31v1159q0 22 3.5 32t12.5 18q11 9 34 14.5t66 5.5q41 0 65 -5t34 -13q9 -8 12.5 -18.5t3.5 -30.5v-488q0 -88 42 -128t112 -40q38 0 73.5 16.5t62.5 44t43.5 64t16.5 76.5v452q0 22 3.5 32t13.5 18q11 9 34 14.5t66 5.5q40 0 64.5 -5
t33.5 -13q10 -8 14.5 -18.5t4.5 -30.5v-773q0 -21 -4.5 -31z" />
    <glyph glyph-name="mu" unicode="&#x3bc;" horiz-adv-x="1042" 
d="M921.5 30q-4.5 -10 -14.5 -20q-9 -8 -30.5 -13t-63.5 -5t-63.5 5t-30.5 13t-13 19t-4 32v60q-6 -16 -23 -40t-42.5 -46.5t-58.5 -38.5t-72 -16q-42 0 -71.5 12.5t-49 29t-29.5 34t-12 26.5v-410q0 -21 -4.5 -31t-13.5 -18q-11 -9 -34 -14.5t-67 -5.5q-40 0 -62.5 5.5
t-33.5 14.5q-9 8 -13.5 18t-4.5 31v1159q0 22 3.5 32t12.5 18q11 9 34 14.5t66 5.5q41 0 65 -5t34 -13q9 -8 12.5 -18.5t3.5 -30.5v-488q0 -88 42 -128t112 -40q38 0 73.5 16.5t62.5 44t43.5 64t16.5 76.5v452q0 22 3.5 32t13.5 18q11 9 34 14.5t66 5.5q40 0 64.5 -5
t33.5 -13q10 -8 14.5 -18.5t4.5 -30.5v-773q0 -21 -4.5 -31z" />
    <glyph glyph-name="paragraph" unicode="&#xb6;" horiz-adv-x="1223" 
d="M1061 -276q0 -20 -2 -29.5t-10 -16.5q-8 -8 -27 -13t-57 -5q-34 0 -54 5t-26 11q-8 10 -10.5 17.5t-2.5 27.5v1510h-202v-1507q0 -20 -2.5 -29.5t-10.5 -16.5q-8 -8 -26.5 -13t-57.5 -5q-34 0 -53.5 5t-25.5 11q-8 10 -10.5 17.5t-2.5 27.5v713q-97 11 -172.5 52
t-127 104t-78.5 145.5t-27 175.5q0 115 37 206t104 154.5t160.5 97.5t206.5 34h379q38 0 56 -4.5t28 -14.5q9 -9 11.5 -20t2.5 -33v-1607z" />
    <glyph glyph-name="periodcentered" unicode="&#xb7;" horiz-adv-x="440" 
d="M367 641q0 -30 -12 -56.5t-32.5 -47t-47 -32t-54.5 -11.5q-29 0 -55.5 11.5t-46.5 32t-32.5 47t-12.5 56.5q0 28 11.5 55t31 48t46 34t56.5 13q28 0 55 -12t47.5 -33t33 -48t12.5 -57z" />
    <glyph glyph-name="cedilla" unicode="&#xb8;" horiz-adv-x="1024" 
d="M651 -104q0 -19 -6.5 -37t-15.5 -39l-78 -178q-7 -15 -15 -24.5t-19.5 -15t-27.5 -7t-40 -1.5q-23 0 -38 3t-23.5 8.5t-11.5 13t-3 16.5q0 17 3.5 33t8.5 33l47 182q4 18 12 29.5t21 18t32.5 9.5t47.5 3q32 0 52.5 -4t32.5 -10.5t16.5 -15t4.5 -17.5z" />
    <glyph glyph-name="onesuperior" unicode="&#xb9;" horiz-adv-x="737" 
d="M521 582q-2 -8 -10 -13t-25 -8.5t-55 -3.5t-55 3.5t-25 8.5t-10 13t-2 20v543l-86 -68q-14 -11 -27 -19.5t-30 -8.5t-30.5 15t-23.5 26q-11 14 -18.5 26.5t-7.5 26.5q0 18 12.5 32t34.5 31l196 156q28 22 53 30.5t44 8.5q31 0 49 -14t18 -48v-737q0 -12 -2 -20z" />
    <glyph glyph-name="ordmasculine" unicode="&#xba;" horiz-adv-x="834" 
d="M553 989q0 74 -35 119t-100 45q-63 0 -99 -45t-36 -119t35 -120t100 -46q31 0 56.5 12t42.5 34t26.5 52.5t9.5 67.5zM702 547q0 -22 -4.5 -44t-15.5 -42q-11 -19 -27 -25t-45 -6h-413q-16 0 -28.5 1.5t-18.5 6.5q-11 8 -14 19.5t-3 29.5q0 22 5 44t16 42q11 19 26.5 25
t44.5 6h414q15 0 28 -1.5t19 -6.5q11 -8 13.5 -19.5t2.5 -29.5zM731 989q0 -68 -23.5 -124.5t-65.5 -96.5t-99.5 -62t-124.5 -22t-124.5 22t-99.5 62t-66 96.5t-24 124.5q0 67 23.5 123t65.5 96t99.5 62t125.5 22q67 0 124 -22t99 -62t66 -96t24 -123z" />
    <glyph glyph-name="guillemotright" unicode="&#xbb;" horiz-adv-x="1004" 
d="M508 518q0 -18 -4.5 -31t-12.5 -25t-18.5 -24.5t-23.5 -27.5l-220 -260q-14 -16 -26 -24.5t-29 -8.5q-8 0 -15.5 3.5t-13 14t-9 29.5t-3.5 51q0 28 1 48.5t4.5 36t9.5 27t16 23.5l145 168l-145 168q-10 12 -16 23.5t-9.5 27t-4.5 35.5t-1 49q0 31 3.5 50.5t9 30.5
t13 14.5t15.5 3.5q17 0 29 -9t26 -24l220 -260q13 -15 23.5 -27.5t18.5 -24.5t12.5 -25.5t4.5 -31.5zM870 518q0 -18 -4.5 -31t-12 -25t-18.5 -24.5t-24 -27.5l-219 -260q-14 -16 -26 -24.5t-29 -8.5q-9 0 -16.5 3.5t-13 14t-8.5 29.5t-3 51q0 28 1 48.5t4 36t9 27t16 23.5
l146 168l-146 168q-10 12 -16 23.5t-9 27t-4 35.5t-1 49q0 31 3 50.5t8.5 30.5t13 14.5t16.5 3.5q17 0 29 -9t26 -24l219 -260q13 -15 24 -27.5t18.5 -24.5t12 -25.5t4.5 -31.5z" />
    <glyph glyph-name="onequarter" unicode="&#xbc;" horiz-adv-x="1755" 
d="M1264 1356q0 -13 -6.5 -29t-20.5 -41l-670 -1243q-8 -15 -16.5 -28t-18.5 -19q-12 -8 -31 -12t-57 -4q-37 0 -56 4.5t-30 9.5q-20 9 -20 31q0 12 6.5 28t20.5 41l669 1243q8 16 17 28.5t18 18.5q12 8 31.5 12.5t56.5 4.5t56 -5t30 -10t16 -13t5 -17zM443 582
q-2 -8 -10 -13t-25 -8.5t-55 -3.5t-55 3.5t-25 8.5t-10 13t-2 20v543l-86 -68q-14 -11 -27 -19.5t-30 -8.5t-30.5 15t-23.5 26q-11 14 -18.5 26.5t-7.5 26.5q0 18 12.5 32t34.5 31l196 156q28 22 53 30.5t44 8.5q31 0 49 -14t18 -48v-737q0 -12 -2 -20zM1346 614l-211 -283
h209zM1647 296q0 -23 -6.5 -46.5t-14.5 -39.5q-9 -12 -22 -16t-35 -4h-39v-166q0 -14 -4 -21.5t-12 -13.5q-9 -5 -30 -8.5t-52 -3.5t-47.5 3.5t-22.5 8.5q-11 6 -13.5 13.5t-2.5 21.5v166h-354q-11 0 -20.5 1.5t-14.5 6.5q-10 5 -14.5 18t-4.5 27q0 26 4.5 41.5t18.5 34.5
l371 477q20 28 45.5 36.5t56.5 8.5q16 0 33 -3t30.5 -10t22 -18.5t8.5 -28.5v-450h68q15 0 23.5 -1.5t15.5 -4.5q12 -6 12 -29z" />
    <glyph glyph-name="onehalf" unicode="&#xbd;" horiz-adv-x="1755" 
d="M1246 1356q0 -13 -6.5 -29t-20.5 -41l-670 -1243q-8 -15 -16.5 -28t-18.5 -19q-12 -8 -31 -12t-57 -4q-37 0 -56 4.5t-30 9.5q-20 9 -20 31q0 12 6.5 28t20.5 41l669 1243q8 16 17 28.5t18 18.5q12 8 31.5 12.5t56.5 4.5t56 -5t30 -10t16 -13t5 -17zM425 582
q-2 -8 -10 -13t-25 -8.5t-55 -3.5t-55 3.5t-25 8.5t-10 13t-2 20v543l-86 -68q-14 -11 -27 -19.5t-30 -8.5t-30.5 15t-23.5 26q-11 14 -18.5 26.5t-7.5 26.5q0 18 12.5 32t34.5 31l196 156q28 22 53 30.5t44 8.5q31 0 49 -14t18 -48v-737q0 -12 -2 -20zM1625 116
q0 -22 -4.5 -50t-13.5 -42q-10 -14 -23 -18.5t-35 -4.5h-442q-40 0 -53 20.5t-13 55.5q0 28 9 47t30 41l101 96q76 73 122 121.5t71 82.5t32.5 59.5t7.5 52.5q0 48 -28.5 74t-73.5 26q-42 0 -67.5 -15.5t-45.5 -33.5q-15 -11 -27 -21t-30 -10q-17 0 -33 10t-27 21
q-12 12 -24.5 27t-12.5 30q0 19 11.5 36t29.5 34q14 13 36 28t51 27.5t66 20.5t81 8q56 0 108 -15t92.5 -45.5t64.5 -78t24 -111.5q0 -63 -25.5 -118.5t-65 -105.5t-87.5 -95.5t-93 -88.5q-3 -3 -12 -11t-12 -11h254q18 0 27.5 -1.5t15.5 -6.5q14 -8 14 -35z" />
    <glyph glyph-name="threequarters" unicode="&#xbe;" horiz-adv-x="1755" 
d="M1342 1356q0 -13 -6.5 -29t-20.5 -41l-670 -1243q-8 -15 -16.5 -28t-18.5 -19q-12 -8 -31 -12t-57 -4q-37 0 -56 4.5t-30 9.5q-20 9 -20 31q0 12 6.5 28t20.5 41l669 1243q8 16 17 28.5t18 18.5q12 8 31.5 12.5t56.5 4.5t56 -5t30 -10t16 -13t5 -17zM609 831
q0 -61 -21.5 -107.5t-56.5 -80.5t-80.5 -57.5t-93.5 -37.5t-95 -20t-85 -6q-31 0 -51 2.5t-33 10.5q-17 11 -21.5 26t-4.5 35q0 41 13.5 61.5t57.5 20.5q9 0 22 0.5t26.5 1.5t25.5 2t21 2q30 4 62 14t59 27t44 42t17 60q0 51 -33 80t-102 29h-45q-17 0 -24.5 1.5t-12.5 4.5
q-14 11 -14 39q0 25 5 48t13 38q9 14 20.5 18.5t32.5 4.5h21q68 0 99.5 24t31.5 60q0 37 -24 57t-70 20q-44 0 -75 -13t-57 -30q-11 -8 -22 -15t-27 -7q-15 0 -26 9.5t-25 25.5q-11 12 -19 24.5t-8 28.5q0 12 8.5 23.5t21 22t28 20t29.5 16.5q17 8 35.5 16t42 14.5t52 10.5
t66.5 4q46 0 92 -12.5t83 -38t60 -63.5t23 -89q0 -68 -29 -110.5t-75 -65.5q50 -23 84 -70t34 -121zM1424 614l-211 -283h209zM1725 296q0 -23 -6.5 -46.5t-14.5 -39.5q-9 -12 -22 -16t-35 -4h-39v-166q0 -14 -4 -21.5t-12 -13.5q-9 -5 -30 -8.5t-52 -3.5t-47.5 3.5
t-22.5 8.5q-11 6 -13.5 13.5t-2.5 21.5v166h-354q-11 0 -20.5 1.5t-14.5 6.5q-10 5 -14.5 18t-4.5 27q0 26 4.5 41.5t18.5 34.5l371 477q20 28 45.5 36.5t56.5 8.5q16 0 33 -3t30.5 -10t22 -18.5t8.5 -28.5v-450h68q15 0 23.5 -1.5t15.5 -4.5q12 -6 12 -29z" />
    <glyph glyph-name="questiondown" unicode="&#xbf;" horiz-adv-x="946" 
d="M874 90q0 -8 -2.5 -15.5t-10.5 -16t-24.5 -18t-43.5 -20.5q-18 -7 -39.5 -13.5t-49.5 -12t-64.5 -9t-84.5 -3.5q-99 0 -178.5 27t-135 76t-85 116t-29.5 147q0 83 21.5 145.5t62 110t99.5 82.5t134 62v147q0 20 4 29.5t13 17.5q11 8 34.5 14.5t65.5 6.5t65.5 -5.5
t32.5 -13.5q10 -8 14.5 -18.5t4.5 -30.5v-217q0 -38 -15 -54t-42 -28q-11 -5 -24.5 -8.5t-35.5 -9.5q-97 -28 -148 -79.5t-51 -140.5q0 -35 12.5 -68t38 -58.5t63 -40.5t87.5 -15q57 0 89 8.5t57 18.5q24 9 41.5 17.5t37.5 8.5q22 0 37.5 -18t26.5 -43q12 -26 17 -44t5 -34z
M713 1231q0 -29 -12 -56t-32.5 -47.5t-48.5 -32.5t-59 -12q-30 0 -57.5 12t-48 32t-33 47t-12.5 57t12 56.5t32.5 46t48 31t58.5 11.5q30 0 57.5 -11.5t48.5 -31t33.5 -46t12.5 -56.5z" />
    <glyph glyph-name="Agrave" unicode="&#xc0;" horiz-adv-x="1186" 
d="M588 1079l-182 -553h364zM1176 37q0 -9 -5.5 -16.5t-11.5 -12.5q-8 -6 -32.5 -12t-69.5 -6q-51 0 -72.5 6t-32.5 14q-16 13 -26 45l-92 279h-492l-88 -268q-6 -20 -12.5 -35t-14.5 -21q-11 -9 -36 -14.5t-68 -5.5q-45 0 -67 5t-33 13q-13 12 -13 29q0 9 4 24t9 29
l434 1239q5 16 11.5 24t12.5 13q13 8 37 13t74 5q51 0 75.5 -5t37.5 -13q6 -5 12.5 -13t11.5 -24l436 -1247q5 -14 8 -25t3 -20zM702 1487q0 -20 -20.5 -29.5t-71.5 -9.5q-42 0 -65 13q-14 8 -25 18t-20 23l-125 170q-28 37 -42 59t-14 39q0 28 31.5 36.5t85.5 8.5
q37 0 66 -7.5t49 -41.5l131 -225q8 -14 14 -27t6 -27z" />
    <glyph glyph-name="Aacute" unicode="&#xc1;" horiz-adv-x="1186" 
d="M588 1079l-182 -553h364zM1176 37q0 -9 -5.5 -16.5t-11.5 -12.5q-8 -6 -32.5 -12t-69.5 -6q-51 0 -72.5 6t-32.5 14q-16 13 -26 45l-92 279h-492l-88 -268q-6 -20 -12.5 -35t-14.5 -21q-11 -9 -36 -14.5t-68 -5.5q-45 0 -67 5t-33 13q-13 12 -13 29q0 9 4 24t9 29
l434 1239q5 16 11.5 24t12.5 13q13 8 37 13t74 5q51 0 75.5 -5t37.5 -13q6 -5 12.5 -13t11.5 -24l436 -1247q5 -14 8 -25t3 -20zM869 1770q0 -17 -14 -39t-42 -59l-125 -170q-9 -13 -20 -23t-25 -18q-23 -13 -65 -13q-51 0 -71.5 9.5t-20.5 29.5q0 14 6 27t14 27l131 225
q20 34 49 41.5t66 7.5q54 0 85.5 -8.5t31.5 -36.5z" />
    <glyph glyph-name="Acircumflex" unicode="&#xc2;" horiz-adv-x="1186" 
d="M588 1079l-182 -553h364zM1176 37q0 -9 -5.5 -16.5t-11.5 -12.5q-8 -6 -32.5 -12t-69.5 -6q-51 0 -72.5 6t-32.5 14q-16 13 -26 45l-92 279h-492l-88 -268q-6 -20 -12.5 -35t-14.5 -21q-11 -9 -36 -14.5t-68 -5.5q-45 0 -67 5t-33 13q-13 12 -13 29q0 9 4 24t9 29
l434 1239q5 16 11.5 24t12.5 13q13 8 37 13t74 5q51 0 75.5 -5t37.5 -13q6 -5 12.5 -13t11.5 -24l436 -1247q5 -14 8 -25t3 -20zM928 1483q0 -17 -15.5 -26t-50.5 -9h-55q-22 0 -37 9.5t-29 23.5l-147 162l-147 -162q-17 -18 -37 -25.5t-52 -7.5h-49q-28 0 -39.5 10
t-11.5 25q0 16 12 31.5t33 40.5l180 203q13 15 23.5 25.5t22.5 17t27 9.5t38 3t38 -3t26.5 -9t21.5 -16t23 -25l180 -203q23 -26 34 -42t11 -32z" />
    <glyph glyph-name="Atilde" unicode="&#xc3;" horiz-adv-x="1186" 
d="M588 1079l-182 -553h364zM1176 37q0 -9 -5.5 -16.5t-11.5 -12.5q-8 -6 -32.5 -12t-69.5 -6q-51 0 -72.5 6t-32.5 14q-16 13 -26 45l-92 279h-492l-88 -268q-6 -20 -12.5 -35t-14.5 -21q-11 -9 -36 -14.5t-68 -5.5q-45 0 -67 5t-33 13q-13 12 -13 29q0 9 4 24t9 29
l434 1239q5 16 11.5 24t12.5 13q13 8 37 13t74 5q51 0 75.5 -5t37.5 -13q6 -5 12.5 -13t11.5 -24l436 -1247q5 -14 8 -25t3 -20zM922 1708q0 -23 -5.5 -47t-14.5 -46t-20.5 -41.5t-23.5 -32.5q-32 -36 -67.5 -54t-81.5 -18q-41 0 -71 12.5t-54 26.5q-26 15 -50.5 29
t-50.5 14q-15 0 -25.5 -5t-17 -12.5t-11.5 -17t-9 -18.5q-6 -14 -17 -22.5t-32 -8.5h-49q-48 0 -48 49q0 6 0.5 13.5t4.5 23.5q9 39 25.5 72t41 57t56.5 37.5t73 13.5q42 0 73.5 -12.5t57.5 -28.5q25 -14 50 -28.5t53 -14.5q23 0 37.5 15t25.5 42q8 19 20.5 28t38.5 9h37
q26 0 40 -7.5t14 -27.5z" />
    <glyph glyph-name="Adieresis" unicode="&#xc4;" horiz-adv-x="1186" 
d="M588 1079l-182 -553h364zM1176 37q0 -9 -5.5 -16.5t-11.5 -12.5q-8 -6 -32.5 -12t-69.5 -6q-51 0 -72.5 6t-32.5 14q-16 13 -26 45l-92 279h-492l-88 -268q-6 -20 -12.5 -35t-14.5 -21q-11 -9 -36 -14.5t-68 -5.5q-45 0 -67 5t-33 13q-13 12 -13 29q0 9 4 24t9 29
l434 1239q5 16 11.5 24t12.5 13q13 8 37 13t74 5q51 0 75.5 -5t37.5 -13q6 -5 12.5 -13t11.5 -24l436 -1247q5 -14 8 -25t3 -20zM551 1584q0 -27 -10 -50.5t-27 -41t-41.5 -27.5t-52.5 -10q-27 0 -51 10t-41.5 27t-28 40t-10.5 49q0 28 9.5 52.5t27 42.5t41 28.5t51.5 10.5
t52 -10t42 -28t28.5 -42t10.5 -51zM891 1584q0 -27 -10 -50.5t-27 -41t-41.5 -27.5t-52.5 -10q-27 0 -51 10t-41.5 27t-28 40t-10.5 49q0 28 9.5 52.5t27 42.5t41 28.5t51.5 10.5t52 -10t42 -28t28.5 -42t10.5 -51z" />
    <glyph glyph-name="Aring" unicode="&#xc5;" horiz-adv-x="1186" 
d="M588 1079l-182 -553h364zM1176 37q0 -9 -5.5 -16.5t-11.5 -12.5q-8 -6 -32.5 -12t-69.5 -6q-51 0 -72.5 6t-32.5 14q-16 13 -26 45l-92 279h-492l-88 -268q-6 -20 -12.5 -35t-14.5 -21q-11 -9 -36 -14.5t-68 -5.5q-45 0 -67 5t-33 13q-13 12 -13 29q0 9 4 24t9 29
l434 1239q5 16 11.5 24t12.5 13q13 8 37 13t74 5q51 0 75.5 -5t37.5 -13q6 -5 12.5 -13t11.5 -24l436 -1247q5 -14 8 -25t3 -20zM684 1651q0 19 -7.5 36t-20 30t-29.5 20.5t-35 7.5q-19 0 -35.5 -8t-28.5 -21.5t-19 -30t-7 -34.5q0 -19 7.5 -36t20.5 -29.5t29 -19.5t33 -7
q19 0 36 7t29.5 19.5t19.5 29.5t7 36zM793 1651q0 -41 -16 -77.5t-44 -64t-64.5 -43.5t-76.5 -16q-38 0 -74 16t-64 43.5t-44.5 64t-16.5 77.5q0 39 15 75.5t42 65t63.5 45.5t78.5 17q39 0 75.5 -16.5t64 -44t44.5 -64.5t17 -78z" />
    <glyph glyph-name="AE" unicode="&#xc6;" horiz-adv-x="1804" 
d="M891 1153l-348 -592h348v592zM1784 154q0 -32 -6 -68t-17 -57q-9 -17 -26.5 -23t-44.5 -6h-682q-45 0 -67 5t-32 13q-9 8 -13.5 20.5t-4.5 35.5v291h-453l-174 -299q-11 -17 -21 -33.5t-18 -22.5q-11 -9 -36 -14.5t-68 -5.5q-45 0 -67.5 6.5t-30.5 11.5q-10 5 -16.5 13.5
t-6.5 19.5q0 9 5 24t18 35l735 1225q15 26 40 36.5t74 10.5h840q22 0 32 -2.5t15 -5.5q10 -6 12.5 -17t2.5 -28q0 -16 -1.5 -34t-4.5 -35t-7.5 -32t-9.5 -24q-11 -19 -27.5 -24t-44.5 -5h-542v-327h483q22 0 31.5 -3t15.5 -8q9 -6 12.5 -16t3.5 -29q0 -15 -1.5 -33
t-4.5 -35.5t-7 -32.5t-9 -24q-11 -17 -28 -21.5t-46 -4.5h-450v-424h585q22 0 32 -2.5t15 -5.5q10 -7 12.5 -17.5t2.5 -27.5z" />
    <glyph glyph-name="Ccedilla" unicode="&#xc7;" horiz-adv-x="1143" 
d="M1122 117q0 -16 -11 -29.5t-40 -32.5q-12 -8 -32 -17t-42 -18t-44 -16t-38 -10q-42 -9 -93 -16t-117 -7q-135 0 -248.5 47.5t-196.5 138t-129.5 223t-46.5 302.5t46.5 303.5t128.5 226t194 141t243 48.5q68 0 119.5 -6t91 -15t69.5 -20t54 -21q48 -20 67 -36.5t19 -34.5
q0 -20 -7 -42.5t-24 -51.5q-11 -20 -20.5 -33t-18 -20.5t-17 -10t-17.5 -2.5q-17 0 -39 9t-37 16q-9 4 -29.5 12.5t-49.5 17t-67 15t-83 6.5q-84 0 -151.5 -31.5t-115 -94.5t-73 -156.5t-25.5 -217.5q0 -123 29 -215.5t78.5 -154.5t116 -93t141.5 -31q51 0 90.5 6t69 15
t51 18.5t36.5 16.5q25 11 37.5 14.5t28.5 3.5q18 0 36.5 -16t35.5 -45q30 -53 30 -86zM774 -104q0 -19 -6.5 -37t-15.5 -39l-78 -178q-7 -15 -15 -24.5t-19.5 -15t-27.5 -7t-40 -1.5q-23 0 -38 3t-23.5 8.5t-11.5 13t-3 16.5q0 17 3.5 33t8.5 33l47 182q4 18 12 29.5t21 18
t32.5 9.5t47.5 3q32 0 52.5 -4t32.5 -10.5t16.5 -15t4.5 -17.5z" />
    <glyph glyph-name="Egrave" unicode="&#xc8;" horiz-adv-x="1063" 
d="M1042 154q0 -32 -5.5 -68t-16.5 -57q-9 -17 -26.5 -23t-45.5 -6h-682q-45 0 -67 5t-31 13t-13.5 20.5t-4.5 35.5v1222q0 23 4.5 36t13.5 20q9 9 30.5 14.5t67.5 5.5h705q21 0 31.5 -2.5t15.5 -5.5q9 -6 11.5 -17t2.5 -28q0 -16 -1.5 -34t-4.5 -35t-7 -32t-9 -24
q-11 -19 -27.5 -24t-44.5 -5h-543v-327h484q21 0 31 -3t16 -8q9 -6 12.5 -16t3.5 -29q0 -15 -1.5 -33t-4.5 -35.5t-7 -32.5t-9 -24q-11 -17 -28 -21.5t-46 -4.5h-451v-424h586q22 0 32 -2.5t15 -5.5q9 -7 11.5 -17.5t2.5 -27.5zM733 1487q0 -20 -20.5 -29.5t-71.5 -9.5
q-42 0 -65 13q-14 8 -25 18t-20 23l-125 170q-28 37 -42 59t-14 39q0 28 31.5 36.5t85.5 8.5q37 0 66 -7.5t49 -41.5l131 -225q8 -14 14 -27t6 -27z" />
    <glyph glyph-name="Eacute" unicode="&#xc9;" horiz-adv-x="1063" 
d="M1042 154q0 -32 -5.5 -68t-16.5 -57q-9 -17 -26.5 -23t-45.5 -6h-682q-45 0 -67 5t-31 13t-13.5 20.5t-4.5 35.5v1222q0 23 4.5 36t13.5 20q9 9 30.5 14.5t67.5 5.5h705q21 0 31.5 -2.5t15.5 -5.5q9 -6 11.5 -17t2.5 -28q0 -16 -1.5 -34t-4.5 -35t-7 -32t-9 -24
q-11 -19 -27.5 -24t-44.5 -5h-543v-327h484q21 0 31 -3t16 -8q9 -6 12.5 -16t3.5 -29q0 -15 -1.5 -33t-4.5 -35.5t-7 -32.5t-9 -24q-11 -17 -28 -21.5t-46 -4.5h-451v-424h586q22 0 32 -2.5t15 -5.5q9 -7 11.5 -17.5t2.5 -27.5zM869 1770q0 -17 -14 -39t-42 -59l-125 -170
q-9 -13 -20 -23t-25 -18q-23 -13 -65 -13q-51 0 -71.5 9.5t-20.5 29.5q0 14 6 27t14 27l131 225q20 34 49 41.5t66 7.5q54 0 85.5 -8.5t31.5 -36.5z" />
    <glyph glyph-name="Ecircumflex" unicode="&#xca;" horiz-adv-x="1063" 
d="M1042 154q0 -32 -5.5 -68t-16.5 -57q-9 -17 -26.5 -23t-45.5 -6h-682q-45 0 -67 5t-31 13t-13.5 20.5t-4.5 35.5v1222q0 23 4.5 36t13.5 20q9 9 30.5 14.5t67.5 5.5h705q21 0 31.5 -2.5t15.5 -5.5q9 -6 11.5 -17t2.5 -28q0 -16 -1.5 -34t-4.5 -35t-7 -32t-9 -24
q-11 -19 -27.5 -24t-44.5 -5h-543v-327h484q21 0 31 -3t16 -8q9 -6 12.5 -16t3.5 -29q0 -15 -1.5 -33t-4.5 -35.5t-7 -32.5t-9 -24q-11 -17 -28 -21.5t-46 -4.5h-451v-424h586q22 0 32 -2.5t15 -5.5q9 -7 11.5 -17.5t2.5 -27.5zM928 1483q0 -17 -15.5 -26t-50.5 -9h-55
q-22 0 -37 9.5t-29 23.5l-147 162l-147 -162q-17 -18 -37 -25.5t-52 -7.5h-49q-28 0 -39.5 10t-11.5 25q0 16 12 31.5t33 40.5l180 203q13 15 23.5 25.5t22.5 17t27 9.5t38 3t38 -3t26.5 -9t21.5 -16t23 -25l180 -203q23 -26 34 -42t11 -32z" />
    <glyph glyph-name="Edieresis" unicode="&#xcb;" horiz-adv-x="1063" 
d="M1042 154q0 -32 -5.5 -68t-16.5 -57q-9 -17 -26.5 -23t-45.5 -6h-682q-45 0 -67 5t-31 13t-13.5 20.5t-4.5 35.5v1222q0 23 4.5 36t13.5 20q9 9 30.5 14.5t67.5 5.5h705q21 0 31.5 -2.5t15.5 -5.5q9 -6 11.5 -17t2.5 -28q0 -16 -1.5 -34t-4.5 -35t-7 -32t-9 -24
q-11 -19 -27.5 -24t-44.5 -5h-543v-327h484q21 0 31 -3t16 -8q9 -6 12.5 -16t3.5 -29q0 -15 -1.5 -33t-4.5 -35.5t-7 -32.5t-9 -24q-11 -17 -28 -21.5t-46 -4.5h-451v-424h586q22 0 32 -2.5t15 -5.5q9 -7 11.5 -17.5t2.5 -27.5zM555 1584q0 -27 -10 -50.5t-27 -41
t-41.5 -27.5t-52.5 -10q-27 0 -51 10t-41.5 27t-28 40t-10.5 49q0 28 9.5 52.5t27 42.5t41 28.5t51.5 10.5t52 -10t42 -28t28.5 -42t10.5 -51zM895 1584q0 -27 -10 -50.5t-27 -41t-41.5 -27.5t-52.5 -10q-27 0 -51 10t-41.5 27t-28 40t-10.5 49q0 28 9.5 52.5t27 42.5
t41 28.5t51.5 10.5t52 -10t42 -28t28.5 -42t10.5 -51z" />
    <glyph glyph-name="Igrave" unicode="&#xcc;" horiz-adv-x="545" 
d="M395 63q0 -23 -4 -33t-12 -18q-11 -9 -37 -14.5t-70 -5.5q-43 0 -69 5t-37 13q-9 10 -12.5 20t-3.5 31v1248q0 23 3.5 33t12.5 18q11 9 36 14.5t68 5.5q45 0 71.5 -5t35.5 -13q9 -9 13.5 -19.5t4.5 -31.5v-1248zM375 1487q0 -20 -20.5 -29.5t-71.5 -9.5q-42 0 -65 13
q-14 8 -25 18t-20 23l-125 170q-28 37 -42 59t-14 39q0 28 31.5 36.5t85.5 8.5q37 0 66 -7.5t49 -41.5l131 -225q8 -14 14 -27t6 -27z" />
    <glyph glyph-name="Iacute" unicode="&#xcd;" horiz-adv-x="545" 
d="M395 63q0 -23 -4 -33t-12 -18q-11 -9 -37 -14.5t-70 -5.5q-43 0 -69 5t-37 13q-9 10 -12.5 20t-3.5 31v1248q0 23 3.5 33t12.5 18q11 9 36 14.5t68 5.5q45 0 71.5 -5t35.5 -13q9 -9 13.5 -19.5t4.5 -31.5v-1248zM554 1770q0 -17 -14 -39t-42 -59l-125 -170
q-9 -13 -20 -23t-25 -18q-23 -13 -65 -13q-51 0 -71.5 9.5t-20.5 29.5q0 14 6 27t14 27l131 225q20 34 49 41.5t66 7.5q54 0 85.5 -8.5t31.5 -36.5z" />
    <glyph glyph-name="Icircumflex" unicode="&#xce;" horiz-adv-x="545" 
d="M395 63q0 -23 -4 -33t-12 -18q-11 -9 -37 -14.5t-70 -5.5q-43 0 -69 5t-37 13q-9 10 -12.5 20t-3.5 31v1248q0 23 3.5 33t12.5 18q11 9 36 14.5t68 5.5q45 0 71.5 -5t35.5 -13q9 -9 13.5 -19.5t4.5 -31.5v-1248zM609 1483q0 -17 -15.5 -26t-50.5 -9h-55q-22 0 -37 9.5
t-29 23.5l-147 162l-147 -162q-17 -18 -37 -25.5t-52 -7.5h-49q-28 0 -39.5 10t-11.5 25q0 16 12 31.5t33 40.5l180 203q13 15 23.5 25.5t22.5 17t27 9.5t38 3t38 -3t26.5 -9t21.5 -16t23 -25l180 -203q23 -26 34 -42t11 -32z" />
    <glyph glyph-name="Idieresis" unicode="&#xcf;" horiz-adv-x="545" 
d="M395 63q0 -23 -4 -33t-12 -18q-11 -9 -37 -14.5t-70 -5.5q-43 0 -69 5t-37 13q-9 10 -12.5 20t-3.5 31v1248q0 23 3.5 33t12.5 18q11 9 36 14.5t68 5.5q45 0 71.5 -5t35.5 -13q9 -9 13.5 -19.5t4.5 -31.5v-1248zM234 1584q0 -27 -10 -50.5t-27 -41t-41.5 -27.5t-52.5 -10
q-27 0 -51 10t-41.5 27t-28 40t-10.5 49q0 28 9.5 52.5t27 42.5t41 28.5t51.5 10.5t52 -10t42 -28t28.5 -42t10.5 -51zM574 1584q0 -27 -10 -50.5t-27 -41t-41.5 -27.5t-52.5 -10q-27 0 -51 10t-41.5 27t-28 40t-10.5 49q0 28 9.5 52.5t27 42.5t41 28.5t51.5 10.5t52 -10
t42 -28t28.5 -42t10.5 -51z" />
    <glyph glyph-name="Eth" unicode="&#xd0;" horiz-adv-x="1356" 
d="M1012 690q0 232 -96.5 353.5t-286.5 121.5h-234v-360h203q20 0 30.5 -1.5t16.5 -4.5q8 -8 11 -16.5t3 -28.5q0 -32 -5.5 -65t-14.5 -50q-11 -19 -26.5 -24t-43.5 -5h-174v-403h246q181 0 276 123.5t95 359.5zM1272 690q0 -162 -45 -290t-127.5 -217t-200 -136t-262.5 -47
h-371q-45 0 -67 5t-31 13t-13.5 20.5t-4.5 35.5v536h-80q-20 0 -30.5 1.5t-16.5 4.5q-8 8 -11.5 17t-3.5 29q0 32 6 64t17 52q11 17 26 22t41 5h52v491q0 23 4.5 36t13.5 20q9 9 30.5 14.5t67.5 5.5h375q144 0 260.5 -45.5t199 -132.5t127 -214t44.5 -290z" />
    <glyph glyph-name="Ntilde" unicode="&#xd1;" horiz-adv-x="1305" 
d="M1155 63q0 -23 -4 -33t-12 -18q-11 -9 -33 -14.5t-64 -5.5q-45 0 -67.5 5.5t-34.5 16.5q-11 9 -18 25l-533 862v-838q0 -23 -3.5 -33t-12.5 -18q-11 -9 -33.5 -14.5t-67.5 -5.5q-43 0 -68 5t-36 13q-9 10 -12.5 20t-3.5 31v1143l-41 70q-8 14 -15.5 27.5t-7.5 25.5
q0 20 16 33q11 9 40.5 14.5t80.5 5.5q38 0 62 -4.5t39 -11t22 -15t12 -16.5l555 -901v877q0 23 4 33t13 18q11 9 34 14.5t66 5.5q45 0 70 -5t35 -13q9 -9 13.5 -19.5t4.5 -31.5v-1248zM977 1708q0 -23 -5.5 -47t-14.5 -46t-20.5 -41.5t-23.5 -32.5q-32 -36 -67.5 -54
t-81.5 -18q-41 0 -71 12.5t-54 26.5q-26 15 -50.5 29t-50.5 14q-15 0 -25.5 -5t-17 -12.5t-11.5 -17t-9 -18.5q-6 -14 -17 -22.5t-32 -8.5h-49q-48 0 -48 49q0 6 0.5 13.5t4.5 23.5q9 39 25.5 72t41 57t56.5 37.5t73 13.5q42 0 73.5 -12.5t57.5 -28.5q25 -14 50 -28.5
t53 -14.5q23 0 37.5 15t25.5 42q8 19 20.5 28t38.5 9h37q26 0 40 -7.5t14 -27.5z" />
    <glyph glyph-name="Ograve" unicode="&#xd2;" horiz-adv-x="1395" 
d="M1053 684q0 124 -24 218t-69.5 157.5t-111.5 96t-150 32.5t-150 -32t-111.5 -95.5t-70 -158t-24.5 -218.5q0 -248 93.5 -374t262.5 -126q83 0 149 31.5t111.5 94.5t70 156.5t24.5 217.5zM1311 684q0 -167 -44 -299.5t-124 -224.5t-193.5 -140.5t-251.5 -48.5
q-139 0 -252 48.5t-193.5 140t-124.5 224t-44 300.5q0 167 43.5 300t124 225.5t193.5 142t253 49.5q138 0 251.5 -49t193.5 -141t124 -225.5t44 -301.5zM825 1487q0 -20 -20.5 -29.5t-71.5 -9.5q-42 0 -65 13q-14 8 -25 18t-20 23l-125 170q-28 37 -42 59t-14 39
q0 28 31.5 36.5t85.5 8.5q37 0 66 -7.5t49 -41.5l131 -225q8 -14 14 -27t6 -27z" />
    <glyph glyph-name="Oacute" unicode="&#xd3;" horiz-adv-x="1395" 
d="M1053 684q0 124 -24 218t-69.5 157.5t-111.5 96t-150 32.5t-150 -32t-111.5 -95.5t-70 -158t-24.5 -218.5q0 -248 93.5 -374t262.5 -126q83 0 149 31.5t111.5 94.5t70 156.5t24.5 217.5zM1311 684q0 -167 -44 -299.5t-124 -224.5t-193.5 -140.5t-251.5 -48.5
q-139 0 -252 48.5t-193.5 140t-124.5 224t-44 300.5q0 167 43.5 300t124 225.5t193.5 142t253 49.5q138 0 251.5 -49t193.5 -141t124 -225.5t44 -301.5zM992 1770q0 -17 -14 -39t-42 -59l-125 -170q-9 -13 -20 -23t-25 -18q-23 -13 -65 -13q-51 0 -71.5 9.5t-20.5 29.5
q0 14 6 27t14 27l131 225q20 34 49 41.5t66 7.5q54 0 85.5 -8.5t31.5 -36.5z" />
    <glyph glyph-name="Ocircumflex" unicode="&#xd4;" horiz-adv-x="1395" 
d="M1053 684q0 124 -24 218t-69.5 157.5t-111.5 96t-150 32.5t-150 -32t-111.5 -95.5t-70 -158t-24.5 -218.5q0 -248 93.5 -374t262.5 -126q83 0 149 31.5t111.5 94.5t70 156.5t24.5 217.5zM1311 684q0 -167 -44 -299.5t-124 -224.5t-193.5 -140.5t-251.5 -48.5
q-139 0 -252 48.5t-193.5 140t-124.5 224t-44 300.5q0 167 43.5 300t124 225.5t193.5 142t253 49.5q138 0 251.5 -49t193.5 -141t124 -225.5t44 -301.5zM1036 1483q0 -17 -15.5 -26t-50.5 -9h-55q-22 0 -37 9.5t-29 23.5l-147 162l-147 -162q-17 -18 -37 -25.5t-52 -7.5h-49
q-28 0 -39.5 10t-11.5 25q0 16 12 31.5t33 40.5l180 203q13 15 23.5 25.5t22.5 17t27 9.5t38 3t38 -3t26.5 -9t21.5 -16t23 -25l180 -203q23 -26 34 -42t11 -32z" />
    <glyph glyph-name="Otilde" unicode="&#xd5;" horiz-adv-x="1395" 
d="M1053 684q0 124 -24 218t-69.5 157.5t-111.5 96t-150 32.5t-150 -32t-111.5 -95.5t-70 -158t-24.5 -218.5q0 -248 93.5 -374t262.5 -126q83 0 149 31.5t111.5 94.5t70 156.5t24.5 217.5zM1311 684q0 -167 -44 -299.5t-124 -224.5t-193.5 -140.5t-251.5 -48.5
q-139 0 -252 48.5t-193.5 140t-124.5 224t-44 300.5q0 167 43.5 300t124 225.5t193.5 142t253 49.5q138 0 251.5 -49t193.5 -141t124 -225.5t44 -301.5zM1041 1708q0 -23 -5.5 -47t-14.5 -46t-20.5 -41.5t-23.5 -32.5q-32 -36 -67.5 -54t-81.5 -18q-41 0 -71 12.5t-54 26.5
q-26 15 -50.5 29t-50.5 14q-15 0 -25.5 -5t-17 -12.5t-11.5 -17t-9 -18.5q-6 -14 -17 -22.5t-32 -8.5h-49q-48 0 -48 49q0 6 0.5 13.5t4.5 23.5q9 39 25.5 72t41 57t56.5 37.5t73 13.5q42 0 73.5 -12.5t57.5 -28.5q25 -14 50 -28.5t53 -14.5q23 0 37.5 15t25.5 42
q8 19 20.5 28t38.5 9h37q26 0 40 -7.5t14 -27.5z" />
    <glyph glyph-name="Odieresis" unicode="&#xd6;" horiz-adv-x="1395" 
d="M1053 684q0 124 -24 218t-69.5 157.5t-111.5 96t-150 32.5t-150 -32t-111.5 -95.5t-70 -158t-24.5 -218.5q0 -248 93.5 -374t262.5 -126q83 0 149 31.5t111.5 94.5t70 156.5t24.5 217.5zM1311 684q0 -167 -44 -299.5t-124 -224.5t-193.5 -140.5t-251.5 -48.5
q-139 0 -252 48.5t-193.5 140t-124.5 224t-44 300.5q0 167 43.5 300t124 225.5t193.5 142t253 49.5q138 0 251.5 -49t193.5 -141t124 -225.5t44 -301.5zM653 1584q0 -27 -10 -50.5t-27 -41t-41.5 -27.5t-52.5 -10q-27 0 -51 10t-41.5 27t-28 40t-10.5 49q0 28 9.5 52.5
t27 42.5t41 28.5t51.5 10.5t52 -10t42 -28t28.5 -42t10.5 -51zM993 1584q0 -27 -10 -50.5t-27 -41t-41.5 -27.5t-52.5 -10q-27 0 -51 10t-41.5 27t-28 40t-10.5 49q0 28 9.5 52.5t27 42.5t41 28.5t51.5 10.5t52 -10t42 -28t28.5 -42t10.5 -51z" />
    <glyph glyph-name="multiply" unicode="&#xd7;" 
d="M883 393q0 -15 -14 -37.5t-42 -48.5q-24 -23 -44.5 -35t-34.5 -12q-13 0 -24 4t-22 15l-198 198l-199 -198q-11 -11 -22 -15t-23 -4q-14 0 -34.5 12t-45.5 35q-28 26 -41.5 48.5t-13.5 37.5q0 14 6 23.5t19 21.5l196 197l-196 196q-13 13 -19 22.5t-6 23.5
q0 15 13.5 37.5t41.5 48.5q25 23 45.5 35t34.5 12q12 0 23 -4t22 -15l199 -198l198 198q11 11 22 15t24 4q29 0 79 -47q28 -26 42 -48.5t14 -37.5q0 -14 -6.5 -23.5t-18.5 -22.5l-196 -196l196 -197q12 -12 18.5 -21.5t6.5 -23.5z" />
    <glyph glyph-name="Oslash" unicode="&#xd8;" horiz-adv-x="1395" 
d="M1053 684q0 72 -9 135t-24 117l-541 -676q88 -80 219 -80q83 0 149 32.5t111.5 96t70 157.5t24.5 218zM915 1112q-83 80 -217 80q-84 0 -150 -32.5t-111.5 -97t-70 -159.5t-24.5 -219q0 -72 8 -133.5t25 -114.5zM1339 1356q0 -17 -10 -33.5t-29 -38.5l-110 -137
q59 -90 90 -205.5t31 -257.5q0 -167 -44 -299.5t-124 -224.5t-193.5 -140.5t-251.5 -48.5q-105 0 -196.5 28.5t-165.5 82.5l-60 -74q-8 -11 -17 -18t-22.5 -11t-32.5 -6t-48 -2q-57 0 -79 13.5t-22 31.5q0 17 11 33.5t28 38.5l109 137q-57 88 -88 202.5t-31 256.5
q0 167 43.5 300t124 225.5t193.5 142t253 49.5q106 0 196.5 -28.5t164.5 -84.5l59 76q9 11 18 18t22 11.5t32.5 6t48.5 1.5q57 0 78.5 -13.5t21.5 -31.5z" />
    <glyph glyph-name="Ugrave" unicode="&#xd9;" horiz-adv-x="1343" 
d="M1204 440q0 -101 -29.5 -187t-93.5 -148.5t-165 -98t-244 -35.5t-244 35t-165.5 97t-94 148t-29.5 187v871q0 23 3.5 33t13.5 18q11 9 36.5 14.5t71.5 5.5q42 0 68 -5t37 -13q9 -9 12.5 -19.5t3.5 -31.5v-881q0 -52 16.5 -97.5t51.5 -79.5t89.5 -53.5t129.5 -19.5
t129 19.5t89 53.5t51.5 79.5t16.5 97.5v879q0 23 4 33t13 18q11 9 36 14.5t70 5.5q44 0 70 -5t37 -13q9 -9 12.5 -19.5t3.5 -31.5v-871zM794 1487q0 -20 -20.5 -29.5t-71.5 -9.5q-42 0 -65 13q-14 8 -25 18t-20 23l-125 170q-28 37 -42 59t-14 39q0 28 31.5 36.5t85.5 8.5
q37 0 66 -7.5t49 -41.5l131 -225q8 -14 14 -27t6 -27z" />
    <glyph glyph-name="Uacute" unicode="&#xda;" horiz-adv-x="1343" 
d="M1204 440q0 -101 -29.5 -187t-93.5 -148.5t-165 -98t-244 -35.5t-244 35t-165.5 97t-94 148t-29.5 187v871q0 23 3.5 33t13.5 18q11 9 36.5 14.5t71.5 5.5q42 0 68 -5t37 -13q9 -9 12.5 -19.5t3.5 -31.5v-881q0 -52 16.5 -97.5t51.5 -79.5t89.5 -53.5t129.5 -19.5
t129 19.5t89 53.5t51.5 79.5t16.5 97.5v879q0 23 4 33t13 18q11 9 36 14.5t70 5.5q44 0 70 -5t37 -13q9 -9 12.5 -19.5t3.5 -31.5v-871zM951 1770q0 -17 -14 -39t-42 -59l-125 -170q-9 -13 -20 -23t-25 -18q-23 -13 -65 -13q-51 0 -71.5 9.5t-20.5 29.5q0 14 6 27t14 27
l131 225q20 34 49 41.5t66 7.5q54 0 85.5 -8.5t31.5 -36.5z" />
    <glyph glyph-name="Ucircumflex" unicode="&#xdb;" horiz-adv-x="1343" 
d="M1204 440q0 -101 -29.5 -187t-93.5 -148.5t-165 -98t-244 -35.5t-244 35t-165.5 97t-94 148t-29.5 187v871q0 23 3.5 33t13.5 18q11 9 36.5 14.5t71.5 5.5q42 0 68 -5t37 -13q9 -9 12.5 -19.5t3.5 -31.5v-881q0 -52 16.5 -97.5t51.5 -79.5t89.5 -53.5t129.5 -19.5
t129 19.5t89 53.5t51.5 79.5t16.5 97.5v879q0 23 4 33t13 18q11 9 36 14.5t70 5.5q44 0 70 -5t37 -13q9 -9 12.5 -19.5t3.5 -31.5v-871zM1010 1483q0 -17 -15.5 -26t-50.5 -9h-55q-22 0 -37 9.5t-29 23.5l-147 162l-147 -162q-17 -18 -37 -25.5t-52 -7.5h-49q-28 0 -39.5 10
t-11.5 25q0 16 12 31.5t33 40.5l180 203q13 15 23.5 25.5t22.5 17t27 9.5t38 3t38 -3t26.5 -9t21.5 -16t23 -25l180 -203q23 -26 34 -42t11 -32z" />
    <glyph glyph-name="Udieresis" unicode="&#xdc;" horiz-adv-x="1343" 
d="M1204 440q0 -101 -29.5 -187t-93.5 -148.5t-165 -98t-244 -35.5t-244 35t-165.5 97t-94 148t-29.5 187v871q0 23 3.5 33t13.5 18q11 9 36.5 14.5t71.5 5.5q42 0 68 -5t37 -13q9 -9 12.5 -19.5t3.5 -31.5v-881q0 -52 16.5 -97.5t51.5 -79.5t89.5 -53.5t129.5 -19.5
t129 19.5t89 53.5t51.5 79.5t16.5 97.5v879q0 23 4 33t13 18q11 9 36 14.5t70 5.5q44 0 70 -5t37 -13q9 -9 12.5 -19.5t3.5 -31.5v-871zM618 1584q0 -27 -10 -50.5t-27 -41t-41.5 -27.5t-52.5 -10q-27 0 -51 10t-41.5 27t-28 40t-10.5 49q0 28 9.5 52.5t27 42.5t41 28.5
t51.5 10.5t52 -10t42 -28t28.5 -42t10.5 -51zM958 1584q0 -27 -10 -50.5t-27 -41t-41.5 -27.5t-52.5 -10q-27 0 -51 10t-41.5 27t-28 40t-10.5 49q0 28 9.5 52.5t27 42.5t41 28.5t51.5 10.5t52 -10t42 -28t28.5 -42t10.5 -51z" />
    <glyph glyph-name="Yacute" unicode="&#xdd;" horiz-adv-x="1167" 
d="M1157 1333q0 -11 -7.5 -26t-23.5 -39l-424 -682v-523q0 -23 -4 -33t-12 -18q-11 -9 -37 -14.5t-71 -5.5q-44 0 -70 5t-35 13q-9 10 -12.5 20t-3.5 31v523l-414 682q-17 26 -25 40t-8 25q0 21 19 31q9 5 31 11.5t67 6.5q30 0 52 -1.5t37.5 -6.5t27 -14.5t20.5 -24.5
l322 -536l323 534q10 16 20.5 25.5t25.5 15t35 7t50 1.5q45 0 68 -5.5t31 -10.5t13 -12.5t5 -18.5zM869 1770q0 -17 -14 -39t-42 -59l-125 -170q-9 -13 -20 -23t-25 -18q-23 -13 -65 -13q-51 0 -71.5 9.5t-20.5 29.5q0 14 6 27t14 27l131 225q20 34 49 41.5t66 7.5
q54 0 85.5 -8.5t31.5 -36.5z" />
    <glyph glyph-name="Thorn" unicode="&#xde;" horiz-adv-x="1149" 
d="M846 748q0 90 -65.5 144t-207.5 54h-182v-426q35 -2 73.5 -3t86.5 -1q78 0 133.5 16.5t91.5 47t53 73t17 95.5zM1098 741q0 -90 -31.5 -167.5t-96 -135t-162 -90.5t-230.5 -33q-35 0 -61 0.5t-47.5 1t-40 2t-38.5 3.5v-259q0 -23 -3.5 -33t-12.5 -18q-11 -9 -36.5 -14.5
t-70.5 -5.5q-43 0 -67 5t-35 13q-9 10 -12.5 20t-3.5 31v1242q0 23 4 35t12 20q11 9 37 15.5t69 6.5q31 0 58 -2.5t43 -13.5q18 -12 18 -47v-170h195q118 0 213 -24.5t161.5 -74.5t102 -126.5t35.5 -180.5z" />
    <glyph glyph-name="germandbls" unicode="&#xdf;" horiz-adv-x="1147" 
d="M1090 309q0 -65 -18.5 -124t-61.5 -105t-112.5 -73t-172.5 -27q-62 0 -129 17t-117 46q-9 5 -19.5 12.5t-20 16t-15.5 18t-6 19.5q0 18 7.5 37t18.5 36q13 19 29.5 33t36.5 14q12 0 32.5 -8t45.5 -20q26 -13 57.5 -24t69.5 -11q39 0 66.5 11t45 29t25.5 41t8 48
q0 34 -17 60.5t-44.5 47t-63.5 36.5t-73 30q-41 15 -77.5 32.5t-64 41.5t-43.5 57.5t-16 81.5q0 28 7.5 55t19.5 52.5t27.5 50t31.5 49.5q12 19 25 41t23 45t16.5 47t6.5 47q0 26 -7.5 49t-23 40t-39.5 26.5t-56 9.5q-41 0 -68 -13t-43.5 -37t-23.5 -59.5t-7 -80.5v-943
q0 -21 -4.5 -31t-13.5 -18q-10 -9 -33.5 -14.5t-67.5 -5.5q-40 0 -63.5 5t-32.5 13q-11 8 -14.5 18.5t-3.5 30.5v971q0 76 21.5 140.5t66.5 111t114 72.5t164 26q98 0 167.5 -24t114 -63t65 -89t20.5 -102q0 -41 -9 -78.5t-23 -69.5t-30.5 -58.5t-31.5 -45.5
q-28 -37 -51 -67t-23 -62q0 -21 18 -36.5t46.5 -29.5t65 -28.5t73.5 -32.5t74 -41t66 -55.5t47 -78.5t18 -110z" />
    <glyph glyph-name="agrave" unicode="&#xe0;" horiz-adv-x="946" 
d="M612 420l-204 -21q-72 -8 -108 -40.5t-36 -88.5q0 -55 34 -85.5t91 -30.5q33 0 72 9.5t72.5 33.5t56 64t22.5 101v58zM864 66q0 -12 -7 -21t-17 -16t-22.5 -13t-22.5 -10q-22 -9 -41.5 -14.5t-42.5 -5.5q-17 0 -26.5 5t-18.5 17q-10 13 -20.5 39.5t-18.5 52.5
q-57 -60 -123.5 -90t-157.5 -30q-55 0 -109 14.5t-96.5 47.5t-69 85.5t-26.5 128.5q0 80 28 134.5t76 89.5t111.5 53t134.5 24l217 18v25q0 63 -43.5 102t-136.5 39q-59 0 -106 -15.5t-84 -31.5q-19 -8 -39 -17t-41 -9q-22 0 -35.5 15.5t-26.5 37.5q-12 22 -16 34t-4 27
q0 16 11.5 29.5t43.5 30.5q26 14 57 27t70 22.5t87 15.5t110 6q86 0 156.5 -20.5t119.5 -67.5q47 -45 70.5 -112t23.5 -166v-332q0 -42 9 -68.5t14 -40.5q5 -12 8.5 -21.5t3.5 -18.5zM580 1036q0 -20 -20.5 -29.5t-71.5 -9.5q-42 0 -65 13q-14 8 -25 18t-20 23l-125 170
q-28 37 -42 59t-14 39q0 28 31.5 36.5t85.5 8.5q37 0 66 -7.5t49 -41.5l131 -225q8 -14 14 -27t6 -27z" />
    <glyph glyph-name="aacute" unicode="&#xe1;" horiz-adv-x="946" 
d="M612 420l-204 -21q-72 -8 -108 -40.5t-36 -88.5q0 -55 34 -85.5t91 -30.5q33 0 72 9.5t72.5 33.5t56 64t22.5 101v58zM864 66q0 -12 -7 -21t-17 -16t-22.5 -13t-22.5 -10q-22 -9 -41.5 -14.5t-42.5 -5.5q-17 0 -26.5 5t-18.5 17q-10 13 -20.5 39.5t-18.5 52.5
q-57 -60 -123.5 -90t-157.5 -30q-55 0 -109 14.5t-96.5 47.5t-69 85.5t-26.5 128.5q0 80 28 134.5t76 89.5t111.5 53t134.5 24l217 18v25q0 63 -43.5 102t-136.5 39q-59 0 -106 -15.5t-84 -31.5q-19 -8 -39 -17t-41 -9q-22 0 -35.5 15.5t-26.5 37.5q-12 22 -16 34t-4 27
q0 16 11.5 29.5t43.5 30.5q26 14 57 27t70 22.5t87 15.5t110 6q86 0 156.5 -20.5t119.5 -67.5q47 -45 70.5 -112t23.5 -166v-332q0 -42 9 -68.5t14 -40.5q5 -12 8.5 -21.5t3.5 -18.5zM752 1319q0 -17 -14 -39t-42 -59l-125 -170q-9 -13 -20 -23t-25 -18q-23 -13 -65 -13
q-51 0 -71.5 9.5t-20.5 29.5q0 14 6 27t14 27l131 225q20 34 49 41.5t66 7.5q54 0 85.5 -8.5t31.5 -36.5z" />
    <glyph glyph-name="acircumflex" unicode="&#xe2;" horiz-adv-x="946" 
d="M612 420l-204 -21q-72 -8 -108 -40.5t-36 -88.5q0 -55 34 -85.5t91 -30.5q33 0 72 9.5t72.5 33.5t56 64t22.5 101v58zM864 66q0 -12 -7 -21t-17 -16t-22.5 -13t-22.5 -10q-22 -9 -41.5 -14.5t-42.5 -5.5q-17 0 -26.5 5t-18.5 17q-10 13 -20.5 39.5t-18.5 52.5
q-57 -60 -123.5 -90t-157.5 -30q-55 0 -109 14.5t-96.5 47.5t-69 85.5t-26.5 128.5q0 80 28 134.5t76 89.5t111.5 53t134.5 24l217 18v25q0 63 -43.5 102t-136.5 39q-59 0 -106 -15.5t-84 -31.5q-19 -8 -39 -17t-41 -9q-22 0 -35.5 15.5t-26.5 37.5q-12 22 -16 34t-4 27
q0 16 11.5 29.5t43.5 30.5q26 14 57 27t70 22.5t87 15.5t110 6q86 0 156.5 -20.5t119.5 -67.5q47 -45 70.5 -112t23.5 -166v-332q0 -42 9 -68.5t14 -40.5q5 -12 8.5 -21.5t3.5 -18.5zM790 1032q0 -17 -15.5 -26t-50.5 -9h-55q-22 0 -37 9.5t-29 23.5l-147 162l-147 -162
q-17 -18 -37 -25.5t-52 -7.5h-49q-28 0 -39.5 10t-11.5 25q0 16 12 31.5t33 40.5l180 203q13 15 23.5 25.5t22.5 17t27 9.5t38 3t38 -3t26.5 -9t21.5 -16t23 -25l180 -203q23 -26 34 -42t11 -32z" />
    <glyph glyph-name="atilde" unicode="&#xe3;" horiz-adv-x="946" 
d="M612 420l-204 -21q-72 -8 -108 -40.5t-36 -88.5q0 -55 34 -85.5t91 -30.5q33 0 72 9.5t72.5 33.5t56 64t22.5 101v58zM864 66q0 -12 -7 -21t-17 -16t-22.5 -13t-22.5 -10q-22 -9 -41.5 -14.5t-42.5 -5.5q-17 0 -26.5 5t-18.5 17q-10 13 -20.5 39.5t-18.5 52.5
q-57 -60 -123.5 -90t-157.5 -30q-55 0 -109 14.5t-96.5 47.5t-69 85.5t-26.5 128.5q0 80 28 134.5t76 89.5t111.5 53t134.5 24l217 18v25q0 63 -43.5 102t-136.5 39q-59 0 -106 -15.5t-84 -31.5q-19 -8 -39 -17t-41 -9q-22 0 -35.5 15.5t-26.5 37.5q-12 22 -16 34t-4 27
q0 16 11.5 29.5t43.5 30.5q26 14 57 27t70 22.5t87 15.5t110 6q86 0 156.5 -20.5t119.5 -67.5q47 -45 70.5 -112t23.5 -166v-332q0 -42 9 -68.5t14 -40.5q5 -12 8.5 -21.5t3.5 -18.5zM786 1257q0 -23 -5.5 -47t-14.5 -46t-20.5 -41.5t-23.5 -32.5q-32 -36 -67.5 -54
t-81.5 -18q-41 0 -71 12.5t-54 26.5q-26 15 -50.5 29t-50.5 14q-15 0 -25.5 -5t-17 -12.5t-11.5 -17t-9 -18.5q-6 -14 -17 -22.5t-32 -8.5h-49q-48 0 -48 49q0 6 0.5 13.5t4.5 23.5q9 39 25.5 72t41 57t56.5 37.5t73 13.5q42 0 73.5 -12.5t57.5 -28.5q25 -14 50 -28.5
t53 -14.5q23 0 37.5 15t25.5 42q8 19 20.5 28t38.5 9h37q26 0 40 -7.5t14 -27.5z" />
    <glyph glyph-name="adieresis" unicode="&#xe4;" horiz-adv-x="946" 
d="M612 420l-204 -21q-72 -8 -108 -40.5t-36 -88.5q0 -55 34 -85.5t91 -30.5q33 0 72 9.5t72.5 33.5t56 64t22.5 101v58zM864 66q0 -12 -7 -21t-17 -16t-22.5 -13t-22.5 -10q-22 -9 -41.5 -14.5t-42.5 -5.5q-17 0 -26.5 5t-18.5 17q-10 13 -20.5 39.5t-18.5 52.5
q-57 -60 -123.5 -90t-157.5 -30q-55 0 -109 14.5t-96.5 47.5t-69 85.5t-26.5 128.5q0 80 28 134.5t76 89.5t111.5 53t134.5 24l217 18v25q0 63 -43.5 102t-136.5 39q-59 0 -106 -15.5t-84 -31.5q-19 -8 -39 -17t-41 -9q-22 0 -35.5 15.5t-26.5 37.5q-12 22 -16 34t-4 27
q0 16 11.5 29.5t43.5 30.5q26 14 57 27t70 22.5t87 15.5t110 6q86 0 156.5 -20.5t119.5 -67.5q47 -45 70.5 -112t23.5 -166v-332q0 -42 9 -68.5t14 -40.5q5 -12 8.5 -21.5t3.5 -18.5zM413 1133q0 -27 -10 -50.5t-27 -41t-41.5 -27.5t-52.5 -10q-27 0 -51 10t-41.5 27t-28 40
t-10.5 49q0 28 9.5 52.5t27 42.5t41 28.5t51.5 10.5t52 -10t42 -28t28.5 -42t10.5 -51zM753 1133q0 -27 -10 -50.5t-27 -41t-41.5 -27.5t-52.5 -10q-27 0 -51 10t-41.5 27t-28 40t-10.5 49q0 28 9.5 52.5t27 42.5t41 28.5t51.5 10.5t52 -10t42 -28t28.5 -42t10.5 -51z" />
    <glyph glyph-name="aring" unicode="&#xe5;" horiz-adv-x="946" 
d="M612 420l-204 -21q-72 -8 -108 -40.5t-36 -88.5q0 -55 34 -85.5t91 -30.5q33 0 72 9.5t72.5 33.5t56 64t22.5 101v58zM864 66q0 -12 -7 -21t-17 -16t-22.5 -13t-22.5 -10q-22 -9 -41.5 -14.5t-42.5 -5.5q-17 0 -26.5 5t-18.5 17q-10 13 -20.5 39.5t-18.5 52.5
q-57 -60 -123.5 -90t-157.5 -30q-55 0 -109 14.5t-96.5 47.5t-69 85.5t-26.5 128.5q0 80 28 134.5t76 89.5t111.5 53t134.5 24l217 18v25q0 63 -43.5 102t-136.5 39q-59 0 -106 -15.5t-84 -31.5q-19 -8 -39 -17t-41 -9q-22 0 -35.5 15.5t-26.5 37.5q-12 22 -16 34t-4 27
q0 16 11.5 29.5t43.5 30.5q26 14 57 27t70 22.5t87 15.5t110 6q86 0 156.5 -20.5t119.5 -67.5q47 -45 70.5 -112t23.5 -166v-332q0 -42 9 -68.5t14 -40.5q5 -12 8.5 -21.5t3.5 -18.5zM542 1200q0 19 -7.5 36t-20 30t-29.5 20.5t-35 7.5q-19 0 -35.5 -8t-28.5 -21.5t-19 -30
t-7 -34.5q0 -19 7.5 -36t20.5 -29.5t29 -19.5t33 -7q19 0 36 7t29.5 19.5t19.5 29.5t7 36zM651 1200q0 -41 -16 -77.5t-44 -64t-64.5 -43.5t-76.5 -16q-38 0 -74 16t-64 43.5t-44.5 64t-16.5 77.5q0 39 15 75.5t42 65t63.5 45.5t78.5 17q39 0 75.5 -16.5t64 -44t44.5 -64.5
t17 -78z" />
    <glyph glyph-name="ae" unicode="&#xe6;" horiz-adv-x="1495" 
d="M612 420l-204 -21q-72 -8 -108 -40.5t-36 -88.5q0 -55 34 -85.5t91 -30.5q33 0 72 9.5t72.5 33.5t56 64t22.5 101v58zM1206 539q-2 47 -16 84.5t-38 63.5t-56.5 40t-71.5 14q-85 0 -135.5 -54t-63.5 -148h381zM1432 467q0 -20 -1.5 -32.5t-4.5 -21t-7.5 -13.5t-9.5 -9
q-11 -9 -31.5 -14.5t-60.5 -5.5h-492q7 -42 26 -78t49 -62t71 -40.5t92 -14.5q48 0 82 6.5t59 14.5q26 8 46.5 16t43.5 8q25 0 37 -16.5t25 -42.5q11 -22 16.5 -37t5.5 -31q0 -15 -11 -30.5t-48 -30.5q-23 -10 -50.5 -19.5t-61 -17t-76 -12t-95.5 -4.5q-75 0 -131.5 16
t-97 39.5t-66 49t-39.5 44.5q-38 -45 -78.5 -74t-83.5 -45.5t-88.5 -23t-93.5 -6.5q-60 0 -116 14.5t-100 47.5t-70.5 85.5t-26.5 128.5q0 80 28 134.5t76 89.5t111.5 53t134.5 24l217 18v25q0 63 -43.5 102t-136.5 39q-59 0 -106 -15.5t-84 -31.5q-19 -8 -39 -17t-41 -9
q-22 0 -35.5 15.5t-26.5 37.5q-12 22 -16 34t-4 27q0 16 11.5 29.5t43.5 30.5q26 14 57 27t70 22.5t87 15.5t110 6q43 0 85 -7t79.5 -22t68 -38t51.5 -55q23 27 54 49t67 38.5t77 25.5t85 9q100 0 176 -33.5t127 -93t77 -141t26 -178.5z" />
    <glyph glyph-name="ccedilla" unicode="&#xe7;" horiz-adv-x="827" 
d="M817 117q0 -16 -11.5 -31.5t-43.5 -34.5q-21 -12 -48 -25t-59.5 -23t-69.5 -16.5t-77 -6.5q-87 0 -165 29t-136.5 87t-92.5 145.5t-34 204.5q0 101 31.5 186.5t88 148t134.5 97.5t172 35q43 0 77 -3.5t61.5 -10t51 -15t45.5 -18.5q23 -10 37 -19t21.5 -17.5t9.5 -17
t2 -15.5q0 -16 -5 -34.5t-18 -43.5q-12 -25 -26 -44.5t-37 -19.5q-20 0 -36 9.5t-44 21.5t-55.5 19.5t-69.5 7.5q-43 0 -80.5 -19.5t-65 -55t-43.5 -84.5t-16 -108q0 -60 15.5 -108t42.5 -81.5t64 -52t79 -18.5q34 0 64 8t55 19t42.5 23t39.5 12q23 0 38.5 -15.5t30.5 -39.5
q13 -19 22 -40t9 -36zM570 -104q0 -19 -6.5 -37t-15.5 -39l-78 -178q-7 -15 -15 -24.5t-19.5 -15t-27.5 -7t-40 -1.5q-23 0 -38 3t-23.5 8.5t-11.5 13t-3 16.5q0 17 3.5 33t8.5 33l47 182q4 18 12 29.5t21 18t32.5 9.5t47.5 3q32 0 52.5 -4t32.5 -10.5t16.5 -15t4.5 -17.5z
" />
    <glyph glyph-name="egrave" unicode="&#xe8;" horiz-adv-x="971" 
d="M682 539q-2 47 -16 84.5t-38 63.5t-56.5 40t-71.5 14q-85 0 -136 -54t-63 -148h381zM907 467q0 -20 -1.5 -32.5t-4.5 -21t-7 -13.5t-9 -9q-11 -9 -31.5 -14.5t-60.5 -5.5h-492q7 -42 25.5 -78t48.5 -62t71 -40.5t93 -14.5q48 0 82 6.5t59 14.5q26 8 46.5 16t43.5 8
q25 0 37 -16.5t24 -42.5q11 -22 17 -37t6 -31q0 -15 -11 -30.5t-48 -30.5q-23 -10 -50.5 -19.5t-61.5 -17t-76 -12t-95 -4.5q-99 0 -180.5 32.5t-139.5 93t-90 146t-32 192.5q0 105 29.5 191.5t85 148t135.5 95.5t182 34q100 0 176 -33.5t127 -93t76.5 -141t25.5 -178.5z
M642 1036q0 -20 -20.5 -29.5t-71.5 -9.5q-42 0 -65 13q-14 8 -25 18t-20 23l-125 170q-28 37 -42 59t-14 39q0 28 31.5 36.5t85.5 8.5q37 0 66 -7.5t49 -41.5l131 -225q8 -14 14 -27t6 -27z" />
    <glyph glyph-name="eacute" unicode="&#xe9;" horiz-adv-x="971" 
d="M682 539q-2 47 -16 84.5t-38 63.5t-56.5 40t-71.5 14q-85 0 -136 -54t-63 -148h381zM907 467q0 -20 -1.5 -32.5t-4.5 -21t-7 -13.5t-9 -9q-11 -9 -31.5 -14.5t-60.5 -5.5h-492q7 -42 25.5 -78t48.5 -62t71 -40.5t93 -14.5q48 0 82 6.5t59 14.5q26 8 46.5 16t43.5 8
q25 0 37 -16.5t24 -42.5q11 -22 17 -37t6 -31q0 -15 -11 -30.5t-48 -30.5q-23 -10 -50.5 -19.5t-61.5 -17t-76 -12t-95 -4.5q-99 0 -180.5 32.5t-139.5 93t-90 146t-32 192.5q0 105 29.5 191.5t85 148t135.5 95.5t182 34q100 0 176 -33.5t127 -93t76.5 -141t25.5 -178.5z
M787 1319q0 -17 -14 -39t-42 -59l-125 -170q-9 -13 -20 -23t-25 -18q-23 -13 -65 -13q-51 0 -71.5 9.5t-20.5 29.5q0 14 6 27t14 27l131 225q20 34 49 41.5t66 7.5q54 0 85.5 -8.5t31.5 -36.5z" />
    <glyph glyph-name="ecircumflex" unicode="&#xea;" horiz-adv-x="971" 
d="M682 539q-2 47 -16 84.5t-38 63.5t-56.5 40t-71.5 14q-85 0 -136 -54t-63 -148h381zM907 467q0 -20 -1.5 -32.5t-4.5 -21t-7 -13.5t-9 -9q-11 -9 -31.5 -14.5t-60.5 -5.5h-492q7 -42 25.5 -78t48.5 -62t71 -40.5t93 -14.5q48 0 82 6.5t59 14.5q26 8 46.5 16t43.5 8
q25 0 37 -16.5t24 -42.5q11 -22 17 -37t6 -31q0 -15 -11 -30.5t-48 -30.5q-23 -10 -50.5 -19.5t-61.5 -17t-76 -12t-95 -4.5q-99 0 -180.5 32.5t-139.5 93t-90 146t-32 192.5q0 105 29.5 191.5t85 148t135.5 95.5t182 34q100 0 176 -33.5t127 -93t76.5 -141t25.5 -178.5z
M846 1032q0 -17 -15.5 -26t-50.5 -9h-55q-22 0 -37 9.5t-29 23.5l-147 162l-147 -162q-17 -18 -37 -25.5t-52 -7.5h-49q-28 0 -39.5 10t-11.5 25q0 16 12 31.5t33 40.5l180 203q13 15 23.5 25.5t22.5 17t27 9.5t38 3t38 -3t26.5 -9t21.5 -16t23 -25l180 -203q23 -26 34 -42
t11 -32z" />
    <glyph glyph-name="edieresis" unicode="&#xeb;" horiz-adv-x="971" 
d="M682 539q-2 47 -16 84.5t-38 63.5t-56.5 40t-71.5 14q-85 0 -136 -54t-63 -148h381zM907 467q0 -20 -1.5 -32.5t-4.5 -21t-7 -13.5t-9 -9q-11 -9 -31.5 -14.5t-60.5 -5.5h-492q7 -42 25.5 -78t48.5 -62t71 -40.5t93 -14.5q48 0 82 6.5t59 14.5q26 8 46.5 16t43.5 8
q25 0 37 -16.5t24 -42.5q11 -22 17 -37t6 -31q0 -15 -11 -30.5t-48 -30.5q-23 -10 -50.5 -19.5t-61.5 -17t-76 -12t-95 -4.5q-99 0 -180.5 32.5t-139.5 93t-90 146t-32 192.5q0 105 29.5 191.5t85 148t135.5 95.5t182 34q100 0 176 -33.5t127 -93t76.5 -141t25.5 -178.5z
M473 1133q0 -27 -10 -50.5t-27 -41t-41.5 -27.5t-52.5 -10q-27 0 -51 10t-41.5 27t-28 40t-10.5 49q0 28 9.5 52.5t27 42.5t41 28.5t51.5 10.5t52 -10t42 -28t28.5 -42t10.5 -51zM813 1133q0 -27 -10 -50.5t-27 -41t-41.5 -27.5t-52.5 -10q-27 0 -51 10t-41.5 27t-28 40
t-10.5 49q0 28 9.5 52.5t27 42.5t41 28.5t51.5 10.5t52 -10t42 -28t28.5 -42t10.5 -51z" />
    <glyph glyph-name="igrave" unicode="&#xec;" horiz-adv-x="467" 
d="M348 59q0 -20 -3.5 -30.5t-14.5 -18.5q-10 -8 -34.5 -13t-66.5 -5q-40 0 -63.5 5t-32.5 13q-11 8 -14.5 18.5t-3.5 30.5v738q0 26 3.5 41t14.5 26q9 10 32 17.5t52 13.5q20 5 42 7.5t36 2.5q11 0 23 -2t18 -8q8 -8 10 -18.5t2 -34.5v-783zM347 1036q0 -20 -20.5 -29.5
t-71.5 -9.5q-42 0 -65 13q-14 8 -25 18t-20 23l-125 170q-28 37 -42 59t-14 39q0 28 31.5 36.5t85.5 8.5q37 0 66 -7.5t49 -41.5l131 -225q8 -14 14 -27t6 -27z" />
    <glyph glyph-name="iacute" unicode="&#xed;" horiz-adv-x="467" 
d="M348 59q0 -20 -3.5 -30.5t-14.5 -18.5q-10 -8 -34.5 -13t-66.5 -5q-40 0 -63.5 5t-32.5 13q-11 8 -14.5 18.5t-3.5 30.5v738q0 26 3.5 41t14.5 26q9 10 32 17.5t52 13.5q20 5 42 7.5t36 2.5q11 0 23 -2t18 -8q8 -8 10 -18.5t2 -34.5v-783zM505 1319q0 -17 -14 -39
t-42 -59l-125 -170q-9 -13 -20 -23t-25 -18q-23 -13 -65 -13q-51 0 -71.5 9.5t-20.5 29.5q0 14 6 27t14 27l131 225q20 34 49 41.5t66 7.5q54 0 85.5 -8.5t31.5 -36.5z" />
    <glyph glyph-name="icircumflex" unicode="&#xee;" horiz-adv-x="467" 
d="M348 59q0 -20 -3.5 -30.5t-14.5 -18.5q-10 -8 -34.5 -13t-66.5 -5q-40 0 -63.5 5t-32.5 13q-11 8 -14.5 18.5t-3.5 30.5v738q0 26 3.5 41t14.5 26q9 10 32 17.5t52 13.5q20 5 42 7.5t36 2.5q11 0 23 -2t18 -8q8 -8 10 -18.5t2 -34.5v-783zM571 1032q0 -17 -15.5 -26
t-50.5 -9h-55q-22 0 -37 9.5t-29 23.5l-147 162l-147 -162q-17 -18 -37 -25.5t-52 -7.5h-49q-28 0 -39.5 10t-11.5 25q0 16 12 31.5t33 40.5l180 203q13 15 23.5 25.5t22.5 17t27 9.5t38 3t38 -3t26.5 -9t21.5 -16t23 -25l180 -203q23 -26 34 -42t11 -32z" />
    <glyph glyph-name="idieresis" unicode="&#xef;" horiz-adv-x="467" 
d="M348 59q0 -20 -3.5 -30.5t-14.5 -18.5q-10 -8 -34.5 -13t-66.5 -5q-40 0 -63.5 5t-32.5 13q-11 8 -14.5 18.5t-3.5 30.5v738q0 26 3.5 41t14.5 26q9 10 32 17.5t52 13.5q20 5 42 7.5t36 2.5q11 0 23 -2t18 -8q8 -8 10 -18.5t2 -34.5v-783zM195 1133q0 -27 -10 -50.5
t-27 -41t-41.5 -27.5t-52.5 -10q-27 0 -51 10t-41.5 27t-28 40t-10.5 49q0 28 9.5 52.5t27 42.5t41 28.5t51.5 10.5t52 -10t42 -28t28.5 -42t10.5 -51zM535 1133q0 -27 -10 -50.5t-27 -41t-41.5 -27.5t-52.5 -10q-27 0 -51 10t-41.5 27t-28 40t-10.5 49q0 28 9.5 52.5
t27 42.5t41 28.5t51.5 10.5t52 -10t42 -28t28.5 -42t10.5 -51z" />
    <glyph glyph-name="eth" unicode="&#xf0;" horiz-adv-x="1040" 
d="M733 436q0 59 -14 108t-41 83.5t-67 53.5t-91 19t-90.5 -19t-67.5 -53.5t-42.5 -83t-14.5 -108.5q0 -61 14.5 -109.5t42 -83t67.5 -53t91 -18.5t90.5 19.5t66.5 55t41.5 84t14.5 105.5zM971 514q0 -130 -34 -229.5t-95 -167t-144.5 -102.5t-183.5 -35q-98 0 -179.5 31.5
t-140 90.5t-91.5 143.5t-33 190.5q0 108 33 193t87.5 143t126 88.5t148.5 30.5q46 0 84 -7.5t68.5 -20t54 -28.5t41.5 -34q-20 69 -48.5 124.5t-60.5 100.5l-151 -68q-11 -5 -20.5 -7.5t-18.5 -2.5q-11 0 -19 8.5t-14 22.5l-25 55q-6 12 -6 21q0 15 10.5 21.5t24.5 13.5
l117 53q-17 14 -33 27t-29 24q-26 22 -44.5 35.5t-18.5 25.5q0 20 9.5 37.5t25.5 38.5q10 14 17 23.5t14 15t15.5 8t20.5 2.5q11 0 32 -8.5t47 -24t55.5 -37t58.5 -48.5q8 -8 14 -14.5t14 -14.5l111 51q17 8 30.5 13.5t24.5 5.5q10 0 19.5 -7t17.5 -24l27 -58q6 -12 6 -20
q0 -22 -33 -35l-102 -45q34 -50 65 -111t54.5 -135t37 -162t13.5 -192z" />
    <glyph glyph-name="ntilde" unicode="&#xf1;" horiz-adv-x="1042" 
d="M932 61q0 -21 -4.5 -31t-14.5 -18q-9 -9 -33 -14.5t-67 -5.5q-40 0 -63.5 5t-32.5 13q-11 8 -15 18.5t-4 30.5v488q0 88 -39 128t-114 40q-40 0 -75.5 -16.5t-62 -44t-42 -64t-15.5 -76.5v-453q0 -21 -4.5 -31t-13.5 -18q-10 -9 -33.5 -14.5t-67.5 -5.5q-40 0 -63.5 5
t-32.5 13q-11 8 -14.5 18.5t-3.5 30.5v738q0 26 3.5 41t14.5 26q9 10 30 16.5t44 12.5q25 6 46.5 9t35.5 3q12 0 23.5 -1.5t17.5 -6.5q11 -9 12.5 -20t1.5 -35v-62q17 26 42.5 50t59.5 42.5t76.5 29.5t93.5 11q75 0 133.5 -22.5t98.5 -65t61 -103t21 -136.5v-525zM867 1257
q0 -23 -5.5 -47t-14.5 -46t-20.5 -41.5t-23.5 -32.5q-32 -36 -67.5 -54t-81.5 -18q-41 0 -71 12.5t-54 26.5q-26 15 -50.5 29t-50.5 14q-15 0 -25.5 -5t-17 -12.5t-11.5 -17t-9 -18.5q-6 -14 -17 -22.5t-32 -8.5h-49q-48 0 -48 49q0 6 0.5 13.5t4.5 23.5q9 39 25.5 72t41 57
t56.5 37.5t73 13.5q42 0 73.5 -12.5t57.5 -28.5q25 -14 50 -28.5t53 -14.5q23 0 37.5 15t25.5 42q8 19 20.5 28t38.5 9h37q26 0 40 -7.5t14 -27.5z" />
    <glyph glyph-name="ograve" unicode="&#xf2;" horiz-adv-x="1040" 
d="M733 446q0 59 -14 109.5t-41 87t-67 57.5t-91 21t-90.5 -20.5t-67.5 -57t-42.5 -87t-14.5 -110.5q0 -59 14.5 -109t42 -87t67.5 -57.5t91 -20.5t90.5 20.5t66.5 57t41.5 86.5t14.5 110zM971 446q0 -104 -34 -190t-94 -147.5t-143 -95t-180 -33.5t-179.5 33.5t-142.5 94.5
t-94 147t-34 191t33.5 191t93.5 147.5t142.5 95t180.5 33.5q97 0 179.5 -33.5t143 -94.5t94.5 -147.5t34 -191.5zM642 1036q0 -20 -20.5 -29.5t-71.5 -9.5q-42 0 -65 13q-14 8 -25 18t-20 23l-125 170q-28 37 -42 59t-14 39q0 28 31.5 36.5t85.5 8.5q37 0 66 -7.5t49 -41.5
l131 -225q8 -14 14 -27t6 -27z" />
    <glyph glyph-name="oacute" unicode="&#xf3;" horiz-adv-x="1040" 
d="M733 446q0 59 -14 109.5t-41 87t-67 57.5t-91 21t-90.5 -20.5t-67.5 -57t-42.5 -87t-14.5 -110.5q0 -59 14.5 -109t42 -87t67.5 -57.5t91 -20.5t90.5 20.5t66.5 57t41.5 86.5t14.5 110zM971 446q0 -104 -34 -190t-94 -147.5t-143 -95t-180 -33.5t-179.5 33.5t-142.5 94.5
t-94 147t-34 191t33.5 191t93.5 147.5t142.5 95t180.5 33.5q97 0 179.5 -33.5t143 -94.5t94.5 -147.5t34 -191.5zM807 1319q0 -17 -14 -39t-42 -59l-125 -170q-9 -13 -20 -23t-25 -18q-23 -13 -65 -13q-51 0 -71.5 9.5t-20.5 29.5q0 14 6 27t14 27l131 225q20 34 49 41.5
t66 7.5q54 0 85.5 -8.5t31.5 -36.5z" />
    <glyph glyph-name="ocircumflex" unicode="&#xf4;" horiz-adv-x="1040" 
d="M733 446q0 59 -14 109.5t-41 87t-67 57.5t-91 21t-90.5 -20.5t-67.5 -57t-42.5 -87t-14.5 -110.5q0 -59 14.5 -109t42 -87t67.5 -57.5t91 -20.5t90.5 20.5t66.5 57t41.5 86.5t14.5 110zM971 446q0 -104 -34 -190t-94 -147.5t-143 -95t-180 -33.5t-179.5 33.5t-142.5 94.5
t-94 147t-34 191t33.5 191t93.5 147.5t142.5 95t180.5 33.5q97 0 179.5 -33.5t143 -94.5t94.5 -147.5t34 -191.5zM860 1032q0 -17 -15.5 -26t-50.5 -9h-55q-22 0 -37 9.5t-29 23.5l-147 162l-147 -162q-17 -18 -37 -25.5t-52 -7.5h-49q-28 0 -39.5 10t-11.5 25q0 16 12 31.5
t33 40.5l180 203q13 15 23.5 25.5t22.5 17t27 9.5t38 3t38 -3t26.5 -9t21.5 -16t23 -25l180 -203q23 -26 34 -42t11 -32z" />
    <glyph glyph-name="otilde" unicode="&#xf5;" horiz-adv-x="1040" 
d="M733 446q0 59 -14 109.5t-41 87t-67 57.5t-91 21t-90.5 -20.5t-67.5 -57t-42.5 -87t-14.5 -110.5q0 -59 14.5 -109t42 -87t67.5 -57.5t91 -20.5t90.5 20.5t66.5 57t41.5 86.5t14.5 110zM971 446q0 -104 -34 -190t-94 -147.5t-143 -95t-180 -33.5t-179.5 33.5t-142.5 94.5
t-94 147t-34 191t33.5 191t93.5 147.5t142.5 95t180.5 33.5q97 0 179.5 -33.5t143 -94.5t94.5 -147.5t34 -191.5zM865 1257q0 -23 -5.5 -47t-14.5 -46t-20.5 -41.5t-23.5 -32.5q-32 -36 -67.5 -54t-81.5 -18q-41 0 -71 12.5t-54 26.5q-26 15 -50.5 29t-50.5 14
q-15 0 -25.5 -5t-17 -12.5t-11.5 -17t-9 -18.5q-6 -14 -17 -22.5t-32 -8.5h-49q-48 0 -48 49q0 6 0.5 13.5t4.5 23.5q9 39 25.5 72t41 57t56.5 37.5t73 13.5q42 0 73.5 -12.5t57.5 -28.5q25 -14 50 -28.5t53 -14.5q23 0 37.5 15t25.5 42q8 19 20.5 28t38.5 9h37
q26 0 40 -7.5t14 -27.5z" />
    <glyph glyph-name="odieresis" unicode="&#xf6;" horiz-adv-x="1040" 
d="M733 446q0 59 -14 109.5t-41 87t-67 57.5t-91 21t-90.5 -20.5t-67.5 -57t-42.5 -87t-14.5 -110.5q0 -59 14.5 -109t42 -87t67.5 -57.5t91 -20.5t90.5 20.5t66.5 57t41.5 86.5t14.5 110zM971 446q0 -104 -34 -190t-94 -147.5t-143 -95t-180 -33.5t-179.5 33.5t-142.5 94.5
t-94 147t-34 191t33.5 191t93.5 147.5t142.5 95t180.5 33.5q97 0 179.5 -33.5t143 -94.5t94.5 -147.5t34 -191.5zM491 1133q0 -27 -10 -50.5t-27 -41t-41.5 -27.5t-52.5 -10q-27 0 -51 10t-41.5 27t-28 40t-10.5 49q0 28 9.5 52.5t27 42.5t41 28.5t51.5 10.5t52 -10t42 -28
t28.5 -42t10.5 -51zM831 1133q0 -27 -10 -50.5t-27 -41t-41.5 -27.5t-52.5 -10q-27 0 -51 10t-41.5 27t-28 40t-10.5 49q0 28 9.5 52.5t27 42.5t41 28.5t51.5 10.5t52 -10t42 -28t28.5 -42t10.5 -51z" />
    <glyph glyph-name="divide" unicode="&#xf7;" 
d="M649 264q0 -30 -12 -57t-32 -47.5t-46.5 -32.5t-54.5 -12q-29 0 -55 12t-46.5 32.5t-32.5 47.5t-12 57q0 29 11.5 56t31.5 48t46.5 33.5t56.5 12.5t56.5 -12.5t46 -33.5t31 -48t11.5 -56zM924 633q0 -38 -6.5 -57.5t-14.5 -30.5q-8 -10 -18.5 -13.5t-32.5 -3.5h-696
q-22 0 -33 3.5t-19 13.5q-8 11 -14 30.5t-6 57.5t5 57.5t13 28.5q10 11 20 14.5t32 3.5h700q22 0 32 -3.5t19 -14.5q8 -9 13.5 -28.5t5.5 -57.5zM649 1001q0 -30 -12 -57t-32 -47.5t-46.5 -32.5t-54.5 -12q-29 0 -55 12t-46.5 32.5t-32.5 47.5t-12 57q0 29 11.5 56t31.5 48
t46.5 33.5t56.5 12.5t56.5 -12.5t46 -33.5t31 -48t11.5 -56z" />
    <glyph glyph-name="oslash" unicode="&#xf8;" horiz-adv-x="1040" 
d="M733 446q0 77 -22 138l-326 -361q54 -51 135 -51q51 0 90.5 20.5t66.5 57t41.5 86.5t14.5 110zM645 678q-25 20 -56 31.5t-69 11.5q-51 0 -90.5 -20.5t-67.5 -57t-42.5 -87t-14.5 -110.5q0 -67 19 -120zM971 446q0 -104 -34 -190t-94 -147.5t-143 -95t-180 -33.5
q-80 0 -149.5 22t-126.5 66l-41 -43q-14 -16 -29.5 -20.5t-44.5 -4.5q-37 0 -48 9.5t-11 19.5q0 11 5 20t23 29l64 72q-45 58 -68.5 132.5t-23.5 163.5q0 105 33.5 191t93.5 147.5t142.5 95t180.5 33.5q76 0 143.5 -20.5t122.5 -58.5l52 55q14 15 29 19.5t44 4.5
q37 0 48.5 -9.5t11.5 -18.5q0 -11 -5 -20.5t-24 -28.5l-74 -80q50 -60 76.5 -138t26.5 -172z" />
    <glyph glyph-name="ugrave" unicode="&#xf9;" horiz-adv-x="1042" 
d="M926 61q0 -21 -4.5 -31t-14.5 -20q-9 -8 -30.5 -13t-63.5 -5t-63.5 5t-30.5 13t-13 19t-4 32v60q-17 -29 -44 -55t-62.5 -45t-79 -30t-92.5 -11q-72 0 -130 21.5t-98.5 63t-62.5 102.5t-22 140v524q0 22 3.5 32t12.5 18q11 9 34 14.5t66 5.5q41 0 65 -5t34 -13
q9 -8 12.5 -18.5t3.5 -30.5v-488q0 -88 42 -128t112 -40q38 0 73.5 16.5t62.5 44t43.5 64t16.5 76.5v452q0 22 3.5 32t13.5 18q11 9 34 14.5t66 5.5q40 0 64.5 -5t33.5 -13q10 -8 14.5 -18.5t4.5 -30.5v-773zM642 1036q0 -20 -20.5 -29.5t-71.5 -9.5q-42 0 -65 13
q-14 8 -25 18t-20 23l-125 170q-28 37 -42 59t-14 39q0 28 31.5 36.5t85.5 8.5q37 0 66 -7.5t49 -41.5l131 -225q8 -14 14 -27t6 -27z" />
    <glyph glyph-name="uacute" unicode="&#xfa;" horiz-adv-x="1042" 
d="M926 61q0 -21 -4.5 -31t-14.5 -20q-9 -8 -30.5 -13t-63.5 -5t-63.5 5t-30.5 13t-13 19t-4 32v60q-17 -29 -44 -55t-62.5 -45t-79 -30t-92.5 -11q-72 0 -130 21.5t-98.5 63t-62.5 102.5t-22 140v524q0 22 3.5 32t12.5 18q11 9 34 14.5t66 5.5q41 0 65 -5t34 -13
q9 -8 12.5 -18.5t3.5 -30.5v-488q0 -88 42 -128t112 -40q38 0 73.5 16.5t62.5 44t43.5 64t16.5 76.5v452q0 22 3.5 32t13.5 18q11 9 34 14.5t66 5.5q40 0 64.5 -5t33.5 -13q10 -8 14.5 -18.5t4.5 -30.5v-773zM807 1319q0 -17 -14 -39t-42 -59l-125 -170q-9 -13 -20 -23
t-25 -18q-23 -13 -65 -13q-51 0 -71.5 9.5t-20.5 29.5q0 14 6 27t14 27l131 225q20 34 49 41.5t66 7.5q54 0 85.5 -8.5t31.5 -36.5z" />
    <glyph glyph-name="ucircumflex" unicode="&#xfb;" horiz-adv-x="1042" 
d="M926 61q0 -21 -4.5 -31t-14.5 -20q-9 -8 -30.5 -13t-63.5 -5t-63.5 5t-30.5 13t-13 19t-4 32v60q-17 -29 -44 -55t-62.5 -45t-79 -30t-92.5 -11q-72 0 -130 21.5t-98.5 63t-62.5 102.5t-22 140v524q0 22 3.5 32t12.5 18q11 9 34 14.5t66 5.5q41 0 65 -5t34 -13
q9 -8 12.5 -18.5t3.5 -30.5v-488q0 -88 42 -128t112 -40q38 0 73.5 16.5t62.5 44t43.5 64t16.5 76.5v452q0 22 3.5 32t13.5 18q11 9 34 14.5t66 5.5q40 0 64.5 -5t33.5 -13q10 -8 14.5 -18.5t4.5 -30.5v-773zM846 1032q0 -17 -15.5 -26t-50.5 -9h-55q-22 0 -37 9.5t-29 23.5
l-147 162l-147 -162q-17 -18 -37 -25.5t-52 -7.5h-49q-28 0 -39.5 10t-11.5 25q0 16 12 31.5t33 40.5l180 203q13 15 23.5 25.5t22.5 17t27 9.5t38 3t38 -3t26.5 -9t21.5 -16t23 -25l180 -203q23 -26 34 -42t11 -32z" />
    <glyph glyph-name="udieresis" unicode="&#xfc;" horiz-adv-x="1042" 
d="M926 61q0 -21 -4.5 -31t-14.5 -20q-9 -8 -30.5 -13t-63.5 -5t-63.5 5t-30.5 13t-13 19t-4 32v60q-17 -29 -44 -55t-62.5 -45t-79 -30t-92.5 -11q-72 0 -130 21.5t-98.5 63t-62.5 102.5t-22 140v524q0 22 3.5 32t12.5 18q11 9 34 14.5t66 5.5q41 0 65 -5t34 -13
q9 -8 12.5 -18.5t3.5 -30.5v-488q0 -88 42 -128t112 -40q38 0 73.5 16.5t62.5 44t43.5 64t16.5 76.5v452q0 22 3.5 32t13.5 18q11 9 34 14.5t66 5.5q40 0 64.5 -5t33.5 -13q10 -8 14.5 -18.5t4.5 -30.5v-773zM473 1133q0 -27 -10 -50.5t-27 -41t-41.5 -27.5t-52.5 -10
q-27 0 -51 10t-41.5 27t-28 40t-10.5 49q0 28 9.5 52.5t27 42.5t41 28.5t51.5 10.5t52 -10t42 -28t28.5 -42t10.5 -51zM813 1133q0 -27 -10 -50.5t-27 -41t-41.5 -27.5t-52.5 -10q-27 0 -51 10t-41.5 27t-28 40t-10.5 49q0 28 9.5 52.5t27 42.5t41 28.5t51.5 10.5t52 -10
t42 -28t28.5 -42t10.5 -51z" />
    <glyph glyph-name="yacute" unicode="&#xfd;" horiz-adv-x="967" 
d="M947 812q-11 -24 -17 -40l-518 -1126q-14 -31 -38.5 -41.5t-78.5 -10.5q-60 0 -88.5 13t-28.5 41q0 15 8.5 35.5t16.5 35.5l172 367l-338 690q-11 22 -18 39t-7 31q0 25 28.5 40t94.5 15q58 0 83.5 -10.5t37.5 -36.5l240 -516l227 510q12 28 36 40.5t81 12.5
q69 0 93.5 -13.5t24.5 -35.5q0 -16 -11 -40zM787 1319q0 -17 -14 -39t-42 -59l-125 -170q-9 -13 -20 -23t-25 -18q-23 -13 -65 -13q-51 0 -71.5 9.5t-20.5 29.5q0 14 6 27t14 27l131 225q20 34 49 41.5t66 7.5q54 0 85.5 -8.5t31.5 -36.5z" />
    <glyph glyph-name="thorn" unicode="&#xfe;" horiz-adv-x="1061" 
d="M750 453q0 54 -12.5 101.5t-38 82t-64.5 54.5t-92 20q-49 0 -87 -20.5t-64.5 -56t-40 -82t-13.5 -97.5q0 -62 13.5 -112t40 -86t64.5 -55.5t87 -19.5q50 0 88.5 20.5t65 56.5t40 85.5t13.5 108.5zM991 467q0 -130 -33.5 -223.5t-95.5 -155.5q-51 -53 -118.5 -80.5
t-145.5 -27.5q-91 0 -152.5 31.5t-95.5 74.5v-414q0 -21 -4.5 -31t-13.5 -18q-10 -9 -33.5 -14.5t-67.5 -5.5q-40 0 -63.5 5t-32.5 13q-11 8 -14.5 18.5t-3.5 30.5v1602q0 26 3.5 41t14.5 26q9 10 31 16.5t51 14.5q19 5 39.5 7.5t34.5 2.5q12 0 23.5 -1.5t17.5 -6.5
q11 -8 12.5 -19t1.5 -36v-526q16 23 40.5 45t57.5 39t75.5 27.5t94.5 10.5q79 0 142.5 -24.5t111.5 -71.5q59 -59 91 -147.5t32 -202.5z" />
    <glyph glyph-name="ydieresis" unicode="&#xff;" horiz-adv-x="967" 
d="M947 812q-11 -24 -17 -40l-518 -1126q-14 -31 -38.5 -41.5t-78.5 -10.5q-60 0 -88.5 13t-28.5 41q0 15 8.5 35.5t16.5 35.5l172 367l-338 690q-11 22 -18 39t-7 31q0 25 28.5 40t94.5 15q58 0 83.5 -10.5t37.5 -36.5l240 -516l227 510q12 28 36 40.5t81 12.5
q69 0 93.5 -13.5t24.5 -35.5q0 -16 -11 -40zM462 1133q0 -27 -10 -50.5t-27 -41t-41.5 -27.5t-52.5 -10q-27 0 -51 10t-41.5 27t-28 40t-10.5 49q0 28 9.5 52.5t27 42.5t41 28.5t51.5 10.5t52 -10t42 -28t28.5 -42t10.5 -51zM802 1133q0 -27 -10 -50.5t-27 -41t-41.5 -27.5
t-52.5 -10q-27 0 -51 10t-41.5 27t-28 40t-10.5 49q0 28 9.5 52.5t27 42.5t41 28.5t51.5 10.5t52 -10t42 -28t28.5 -42t10.5 -51z" />
    <glyph glyph-name="minus" unicode="&#x2212;" 
d="M922 635q0 -42 -5.5 -60.5t-13.5 -27.5q-9 -9 -19 -14t-32 -5h-696q-22 0 -33 5t-19 14t-14 27.5t-6 60.5q0 38 5 57.5t13 28.5q10 9 20 13.5t32 4.5h698q22 0 32 -4.5t19 -13.5q8 -9 13.5 -28.5t5.5 -57.5z" />
    <glyph glyph-name="lslash" unicode="&#x142;" horiz-adv-x="467" 
d="M449 825q0 -21 -10 -46t-27 -44l-62 -65v-609q0 -21 -4.5 -31t-13.5 -18q-10 -9 -33.5 -14.5t-67.5 -5.5q-40 0 -63.5 5t-32.5 13q-11 8 -14.5 18.5t-3.5 30.5v367l-31 -35q-8 -9 -20.5 -22t-24.5 -13q-16 0 -20.5 11.5t-4.5 25.5v125q0 22 8 43.5t23 36.5l70 74v600
q0 26 3.5 41t14.5 26q9 10 32 17.5t52 13.5q19 5 40.5 7.5t35.5 2.5q11 0 22.5 -2.5t16.5 -5.5q11 -9 12.5 -19.5t1.5 -35.5v-406l25 27q9 9 22 23t27 14q27 0 27 -29v-121z" />
    <glyph glyph-name="FL355" horiz-adv-x="967" 
d="M956 856q0 -14 -5 -28t-11 -29l-395 -936q-34 -80 -66 -126t-69 -75q-47 -37 -96 -52.5t-105 -15.5q-59 0 -88.5 7.5t-44.5 13.5q-33 13 -33 43q0 14 2.5 30.5t11.5 45.5q10 29 21 46t37 17q17 0 34.5 -4t38.5 -4q17 0 35.5 6.5t37.5 21t36.5 37.5t32.5 56l65 151
l-360 723q-11 20 -18 35t-7 31q0 11 5 18.5t12 12.5q12 9 38 14.5t66 5.5q75 0 102 -18q10 -7 17.5 -19t13.5 -26l242 -525l209 521q13 35 33 49q12 9 35 13.5t63 4.5t62.5 -5t33.5 -13q14 -11 14 -27z" />
    <glyph glyph-name="notequal" unicode="&#x2260;" 
d="M922 434q0 -38 -6.5 -57.5t-14.5 -30.5q-8 -9 -18.5 -12.5t-32.5 -3.5h-453l-139 -197q-12 -17 -22.5 -23t-22.5 -6q-11 0 -28.5 6.5t-39.5 20.5q-18 12 -35.5 27.5t-17.5 34.5q0 9 3.5 19t13.5 24l67 94h-20q-22 0 -33 3.5t-19 12.5q-8 11 -14 30.5t-6 57.5t5 57.5
t13 28.5q10 11 20 15t32 4h170l135 190h-303q-22 0 -33 3.5t-19 12.5q-8 11 -14 30.5t-6 58.5q0 38 5 57t13 29q10 11 20 14.5t32 3.5h454l140 197q12 17 22 22.5t23 5.5q11 0 28 -6t39 -20q19 -13 36 -28t17 -34q0 -9 -3.5 -19t-12.5 -24l-68 -94h23q22 0 32 -3.5t19 -14.5
q8 -10 13.5 -29t5.5 -57q0 -39 -6.5 -58.5t-14.5 -30.5q-8 -9 -18.5 -12.5t-32.5 -3.5h-168l-135 -190h305q22 0 32 -4t19 -15q8 -9 13.5 -28.5t5.5 -57.5z" />
    <glyph glyph-name="lessequal" unicode="&#x2264;" 
d="M924 104q0 -38 -6.5 -57.5t-14.5 -30.5q-8 -9 -18.5 -12.5t-32.5 -3.5h-696q-22 0 -33 3.5t-19 12.5q-8 11 -14 30.5t-6 57.5q0 39 5 58t13 28q10 11 20 15t32 4h700q22 0 32 -4t19 -15q8 -9 13.5 -28t5.5 -58zM926 414q0 -39 -6 -61t-11 -31q-12 -19 -30 -19
q-23 0 -58 14l-684 306q-15 7 -25.5 15t-17 20.5t-9.5 31t-3 45.5q0 28 3 46.5t10 31t17 20.5t25 15l684 309q35 14 58 14q18 0 30 -18q5 -9 11 -31.5t6 -60.5q0 -18 -1 -30.5t-3 -21t-5 -14.5l-6 -12q-6 -12 -22 -22.5t-33 -18.5l-498 -205l498 -205q17 -8 33 -18t22 -22
q3 -6 6 -12.5t5 -14.5t3 -20.5t1 -30.5z" />
    <glyph glyph-name="greaterequal" unicode="&#x2265;" 
d="M924 104q0 -38 -6.5 -57.5t-14.5 -30.5q-8 -9 -18.5 -12.5t-32.5 -3.5h-696q-22 0 -33 3.5t-19 12.5q-8 11 -14 30.5t-6 57.5q0 39 5 58t13 28q10 11 20 15t32 4h700q22 0 32 -4t19 -15q8 -9 13.5 -28t5.5 -58zM926 735q0 -27 -3 -45.5t-9.5 -31t-17.5 -20.5t-26 -15
l-684 -306q-34 -14 -57 -14q-19 0 -31 19q-5 9 -10.5 31t-5.5 61q0 18 1 30.5t3 20.5t4.5 14.5t5.5 12.5q6 12 22.5 22t33.5 18l497 205l-497 205q-17 8 -33.5 18.5t-22.5 22.5t-10 26.5t-4 51.5q0 38 5.5 60.5t10.5 31.5q12 18 31 18q23 0 57 -14l684 -309q15 -7 25.5 -15
t17 -20.5t10 -31t3.5 -46.5z" />
    <glyph glyph-name="fraction" unicode="&#x2215;" horiz-adv-x="113" 
d="M518 1356q0 -13 -6 -29t-20 -41l-670 -1243q-8 -15 -17 -28t-18 -19q-12 -8 -31.5 -12t-56.5 -4t-56 4.5t-30 9.5q-21 9 -21 31q0 12 6.5 28t20.5 41l670 1243q8 16 16.5 28.5t18.5 18.5q12 8 31 12.5t57 4.5q37 0 56 -5t30 -10t15.5 -13t4.5 -17z" />
    <glyph glyph-name="fi" unicode="&#xfb01;" horiz-adv-x="1059" 
d="M942 59q0 -20 -3.5 -29.5t-12.5 -17.5q-11 -9 -36 -14.5t-67 -5.5t-65.5 5t-32.5 13t-12.5 18.5t-3.5 30.5v648h-308v-646q0 -21 -3.5 -31t-12.5 -18q-11 -9 -34.5 -14.5t-65.5 -5.5t-66.5 5t-34.5 13q-9 8 -12.5 18.5t-3.5 30.5v648h-100q-20 0 -30.5 1.5t-17.5 4.5
q-8 6 -11 14.5t-3 28.5q0 31 5 61.5t18 50.5q9 16 24 20.5t43 4.5h70v108q0 79 23 148t70.5 120.5t120.5 81t173 29.5q95 0 157 -18.5t103 -38.5q38 -17 51 -32.5t13 -30.5q0 -19 -7 -36.5t-16 -35.5q-12 -23 -25.5 -42.5t-37.5 -19.5q-17 0 -31 6.5t-33 14.5
q-20 9 -57.5 23t-94.5 14q-48 0 -81.5 -14.5t-54 -41t-29.5 -63t-9 -80.5v-92h457q31 0 46.5 -3.5t21.5 -8.5q9 -7 12.5 -16t3.5 -29v-777z" />
    <glyph glyph-name="fl" unicode="&#xfb02;" horiz-adv-x="1098" 
d="M981 61q0 -21 -3.5 -31t-12.5 -18q-11 -9 -36 -14.5t-67 -5.5t-65.5 5t-32.5 13t-12.5 18.5t-3.5 30.5v1053q0 17 -8.5 28t-20.5 19q-23 14 -59 24.5t-87 10.5q-49 0 -82 -13t-53 -37t-28.5 -56.5t-8.5 -71.5v-123h193q20 0 30.5 -1.5t16.5 -4.5q8 -6 11 -14.5t3 -28.5
q0 -31 -5.5 -62.5t-16.5 -48.5q-9 -17 -25.5 -21.5t-42.5 -4.5h-164v-646q0 -21 -3.5 -31t-12.5 -18q-11 -9 -34.5 -14.5t-65.5 -5.5t-66.5 5t-34.5 13q-9 8 -12.5 18.5t-3.5 30.5v648h-100q-20 0 -30.5 1.5t-17.5 4.5q-8 6 -11 14.5t-3 28.5q0 31 5 61.5t18 50.5
q9 16 24 20.5t43 4.5h70v111q0 174 98 270q53 49 131.5 77.5t188.5 28.5q54 0 102 -7.5t88.5 -18.5t73 -23t53.5 -22q45 -22 62.5 -45.5t17.5 -57.5v-1145z" />
    <glyph glyph-name="dotlessi" unicode="&#x131;" horiz-adv-x="467" 
d="M348 59q0 -20 -3.5 -30.5t-14.5 -18.5q-10 -8 -34.5 -13t-66.5 -5q-40 0 -63.5 5t-32.5 13q-11 8 -14.5 18.5t-3.5 30.5v738q0 26 3.5 41t14.5 26q9 10 32 17.5t52 13.5q20 5 42 7.5t36 2.5q11 0 23 -2t18 -8q8 -8 10 -18.5t2 -34.5v-783z" />
    <glyph glyph-name="breve" unicode="&#x2d8;" horiz-adv-x="1024" 
d="M803 1257q0 -21 -6.5 -43.5t-14.5 -44.5q-15 -38 -37.5 -69.5t-55.5 -54t-77 -35.5t-100 -13t-100 13t-77 35.5t-55.5 54t-37.5 69.5q-8 22 -14.5 44.5t-6.5 43.5q0 22 14 34t37 12h56q29 0 41.5 -8t17.5 -23q6 -19 14 -38.5t22 -35t35.5 -25.5t53.5 -10t53.5 10
t35.5 25.5t22 35t14 38.5q5 15 17.5 23t41.5 8h56q23 0 37 -12t14 -34z" />
    <glyph glyph-name="dotaccent" unicode="&#x2d9;" horiz-adv-x="1024" 
d="M649 1178q0 -29 -11.5 -54t-30.5 -44.5t-44 -30.5t-53 -11q-26 0 -51 11t-44 30.5t-30.5 44.5t-11.5 54q0 27 10.5 52t29 45t43.5 32t54 12q26 0 51 -11.5t44.5 -31t31.5 -45t12 -53.5z" />
    <glyph glyph-name="ring" unicode="&#x2da;" horiz-adv-x="1024" 
d="M602 1200q0 19 -7.5 36t-20 30t-29.5 20.5t-35 7.5q-19 0 -35.5 -8t-28.5 -21.5t-19 -30t-7 -34.5q0 -19 7.5 -36t20.5 -29.5t29 -19.5t33 -7q19 0 36 7t29.5 19.5t19.5 29.5t7 36zM711 1200q0 -41 -16 -77.5t-44 -64t-64.5 -43.5t-76.5 -16q-38 0 -74 16t-64 43.5
t-44.5 64t-16.5 77.5q0 39 15 75.5t42 65t63.5 45.5t78.5 17q39 0 75.5 -16.5t64 -44t44.5 -64.5t17 -78z" />
    <glyph glyph-name="hungarumlaut" unicode="&#x2dd;" horiz-adv-x="1024" 
d="M528 1319q0 -17 -13.5 -39t-41.5 -59l-125 -170q-9 -13 -20 -23t-25 -18q-12 -7 -24 -10t-33 -3q-51 0 -71.5 9.5t-20.5 29.5q0 14 6 27t14 27l131 225q20 34 49 41.5t66 7.5q54 0 81 -8.5t27 -36.5zM870 1319q0 -17 -13.5 -39t-41.5 -59l-125 -170q-9 -13 -20 -23
t-25 -18q-12 -7 -24 -10t-33 -3q-51 0 -71.5 9.5t-20.5 29.5q0 14 6 27t14 27l131 225q20 34 49 41.5t66 7.5q54 0 81 -8.5t27 -36.5z" />
    <glyph glyph-name="ogonek" unicode="&#x2db;" horiz-adv-x="1024" 
d="M727 -322q0 -19 -31 -40q-11 -8 -28 -16t-39 -14t-47 -10t-50 -4q-44 0 -86 11.5t-76 36t-54.5 63t-20.5 92.5q0 41 13 77t36 65t55.5 49.5t71.5 31.5h199q-38 -11 -73 -30.5t-62 -45t-43.5 -56t-16.5 -64.5q0 -40 23.5 -62t58.5 -22q22 0 35 3.5t24 8.5q13 5 22 10t21 5
q17 0 27.5 -11.5t20.5 -25.5q8 -11 14 -25t6 -27z" />
    <glyph glyph-name="caron" unicode="&#x2c7;" horiz-adv-x="1024" 
d="M846 1327q0 -15 -12 -31t-33 -41l-180 -202q-13 -15 -23.5 -26t-22.5 -17.5t-27 -9.5t-38 -3t-38 3t-26.5 9.5t-21.5 16.5t-23 25l-180 202q-23 26 -34 42.5t-11 31.5q0 17 15.5 26t50.5 9h55q22 0 36.5 -9.5t28.5 -23.5l148 -162l147 162q17 19 36.5 26t51.5 7h50
q27 0 39 -9.5t12 -25.5z" />
    <glyph glyph-name="ascendercaron" horiz-adv-x="446" 
d="M373 1327q0 -28 -17 -65l-92 -232q-8 -18 -17.5 -29t-22.5 -17t-30 -7.5t-40 -1.5q-47 0 -73 9.5t-26 37.5q0 14 2.5 26t5.5 27l56 244q4 17 11.5 28.5t22.5 19t39 10.5t62 3q39 0 62.5 -5.5t36 -13.5t16.5 -17t4 -17z" />
    <glyph glyph-name="zdot" unicode="&#x17c;" horiz-adv-x="821" 
d="M805 137q0 -31 -5.5 -62t-15.5 -48q-9 -16 -24.5 -21.5t-44.5 -5.5h-619q-43 0 -57 14q-12 11 -17.5 27t-5.5 47q0 19 2 32.5t6.5 25t12.5 23t20 26.5l418 512h-377q-38 0 -49 8q-6 5 -9 13t-3 28q0 31 5 61.5t17 50.5q10 16 25 20.5t43 4.5h578q21 0 34.5 -4t22.5 -10
q12 -10 17 -26.5t5 -47.5q0 -18 -1.5 -31.5t-5.5 -25t-10.5 -21.5t-16.5 -22l-422 -519h415q20 0 30.5 -1.5t17.5 -4.5q8 -5 11 -14t3 -29zM582 1178q0 -29 -11.5 -54t-30.5 -44.5t-44 -30.5t-53 -11q-26 0 -51 11t-44 30.5t-30.5 44.5t-11.5 54q0 27 10.5 52t29 45t43.5 32
t54 12q26 0 51 -11.5t44.5 -31t31.5 -45t12 -53.5z" />
    <glyph glyph-name="Zdot" unicode="&#x17b;" horiz-adv-x="1028" 
d="M1010 154q0 -16 -2 -34t-5 -35.5t-7.5 -32t-8.5 -23.5q-9 -17 -26.5 -23t-45.5 -6h-813q-41 0 -59 18q-20 21 -20 84q0 20 2 34.5t6 26.5t10.5 23.5t15.5 26.5l633 952h-596q-21 0 -31.5 2.5t-15.5 6.5q-9 6 -11.5 17t-2.5 28q0 16 1.5 34t4.5 35t7 31.5t9 23.5
q10 19 27 24t45 5h782q22 0 36 -4.5t24 -13.5q11 -11 15.5 -30.5t4.5 -51.5q0 -20 -2 -34.5t-6 -26.5t-11 -23.5t-16 -26.5l-635 -954h629q22 0 32.5 -2.5t16.5 -7.5q8 -7 10.5 -17.5t2.5 -25.5zM667 1629q0 -29 -11.5 -54t-30.5 -44.5t-44 -30.5t-53 -11q-26 0 -51 11
t-44 30.5t-30.5 44.5t-11.5 54q0 27 10.5 52t29 45t43.5 32t54 12q26 0 51 -11.5t44.5 -31t31.5 -45t12 -53.5z" />
    <glyph glyph-name="zacute" unicode="&#x17a;" horiz-adv-x="821" 
d="M805 137q0 -31 -5.5 -62t-15.5 -48q-9 -16 -24.5 -21.5t-44.5 -5.5h-619q-43 0 -57 14q-12 11 -17.5 27t-5.5 47q0 19 2 32.5t6.5 25t12.5 23t20 26.5l418 512h-377q-38 0 -49 8q-6 5 -9 13t-3 28q0 31 5 61.5t17 50.5q10 16 25 20.5t43 4.5h578q21 0 34.5 -4t22.5 -10
q12 -10 17 -26.5t5 -47.5q0 -18 -1.5 -31.5t-5.5 -25t-10.5 -21.5t-16.5 -22l-422 -519h415q20 0 30.5 -1.5t17.5 -4.5q8 -5 11 -14t3 -29zM730 1319q0 -17 -14 -39t-42 -59l-125 -170q-9 -13 -20 -23t-25 -18q-23 -13 -65 -13q-51 0 -71.5 9.5t-20.5 29.5q0 14 6 27t14 27
l131 225q20 34 49 41.5t66 7.5q54 0 85.5 -8.5t31.5 -36.5z" />
    <glyph glyph-name="Zacute" unicode="&#x179;" horiz-adv-x="1028" 
d="M1010 154q0 -16 -2 -34t-5 -35.5t-7.5 -32t-8.5 -23.5q-9 -17 -26.5 -23t-45.5 -6h-813q-41 0 -59 18q-20 21 -20 84q0 20 2 34.5t6 26.5t10.5 23.5t15.5 26.5l633 952h-596q-21 0 -31.5 2.5t-15.5 6.5q-9 6 -11.5 17t-2.5 28q0 16 1.5 34t4.5 35t7 31.5t9 23.5
q10 19 27 24t45 5h782q22 0 36 -4.5t24 -13.5q11 -11 15.5 -30.5t4.5 -51.5q0 -20 -2 -34.5t-6 -26.5t-11 -23.5t-16 -26.5l-635 -954h629q22 0 32.5 -2.5t16.5 -7.5q8 -7 10.5 -17.5t2.5 -25.5zM803 1770q0 -17 -14 -39t-42 -59l-125 -170q-9 -13 -20 -23t-25 -18
q-23 -13 -65 -13q-51 0 -71.5 9.5t-20.5 29.5q0 14 6 27t14 27l131 225q20 34 49 41.5t66 7.5q54 0 85.5 -8.5t31.5 -36.5z" />
    <glyph glyph-name="uogonek" unicode="&#x173;" horiz-adv-x="1042" 
d="M975 -322q0 -19 -31 -40q-11 -8 -28.5 -16t-39 -14t-46.5 -10t-50 -4q-44 0 -86 11.5t-76 36t-54.5 63t-20.5 92.5q0 81 46 139.5t122 81.5q-5 7 -7 16.5t-2 26.5v60q-17 -29 -44 -55t-62.5 -45t-79 -30t-92.5 -11q-72 0 -130 21.5t-98.5 63t-62.5 102.5t-22 140v524
q0 22 3.5 32t12.5 18q11 9 34 14.5t66 5.5q41 0 65 -5t34 -13q9 -8 12.5 -18.5t3.5 -30.5v-488q0 -88 42 -128t112 -40q38 0 73.5 16.5t62.5 44t43.5 64t16.5 76.5v452q0 22 3.5 32t13.5 18q11 9 34 14.5t66 5.5q40 0 64.5 -5t33.5 -13q10 -8 14.5 -18.5t4.5 -30.5v-773
q0 -15 -3 -24.5t-8 -16.5h3h-3q-2 -4 -8 -10t-19 -10t-36 -6q-27 -15 -50.5 -33.5t-41 -40t-27.5 -46t-10 -50.5q0 -40 23.5 -62t58.5 -22q22 0 35 3.5t24 8.5q13 5 22 10t21 5q17 0 27.5 -11.5t19.5 -25.5q8 -11 14.5 -25t6.5 -27z" />
    <glyph glyph-name="Uogonek" unicode="&#x172;" horiz-adv-x="1343" 
d="M1204 440q0 -93 -25 -173t-78.5 -141.5t-137.5 -100.5t-203 -50q-44 -29 -71 -67.5t-27 -83.5q0 -40 23 -62t58 -22q22 0 35.5 3.5t24.5 8.5q12 5 21 10t22 5q17 0 27.5 -11.5t19.5 -25.5q8 -11 14 -25t6 -27q0 -19 -30 -40q-22 -16 -67.5 -30t-96.5 -14
q-44 0 -86.5 11.5t-76.5 36t-54.5 63t-20.5 92.5q0 56 23 102t65 78q-114 12 -195.5 51.5t-133.5 100t-76.5 139.5t-24.5 170v871q0 23 3.5 33t13.5 18q11 9 36.5 14.5t71.5 5.5q42 0 68 -5t37 -13q9 -9 12.5 -19.5t3.5 -31.5v-881q0 -52 16.5 -97.5t51.5 -79.5t89.5 -53.5
t129.5 -19.5t129 19.5t89 53.5t51.5 79.5t16.5 97.5v879q0 23 4 33t13 18q11 9 36 14.5t70 5.5q44 0 70 -5t37 -13q9 -9 12.5 -19.5t3.5 -31.5v-871z" />
    <glyph glyph-name="udblacute" unicode="&#x171;" horiz-adv-x="1042" 
d="M926 61q0 -21 -4.5 -31t-14.5 -20q-9 -8 -30.5 -13t-63.5 -5t-63.5 5t-30.5 13t-13 19t-4 32v60q-17 -29 -44 -55t-62.5 -45t-79 -30t-92.5 -11q-72 0 -130 21.5t-98.5 63t-62.5 102.5t-22 140v524q0 22 3.5 32t12.5 18q11 9 34 14.5t66 5.5q41 0 65 -5t34 -13
q9 -8 12.5 -18.5t3.5 -30.5v-488q0 -88 42 -128t112 -40q38 0 73.5 16.5t62.5 44t43.5 64t16.5 76.5v452q0 22 3.5 32t13.5 18q11 9 34 14.5t66 5.5q40 0 64.5 -5t33.5 -13q10 -8 14.5 -18.5t4.5 -30.5v-773zM639 1319q0 -17 -13.5 -39t-41.5 -59l-125 -170q-9 -13 -20 -23
t-25 -18q-12 -7 -24 -10t-33 -3q-51 0 -71.5 9.5t-20.5 29.5q0 14 6 27t14 27l131 225q20 34 49 41.5t66 7.5q54 0 81 -8.5t27 -36.5zM981 1319q0 -17 -13.5 -39t-41.5 -59l-125 -170q-9 -13 -20 -23t-25 -18q-12 -7 -24 -10t-33 -3q-51 0 -71.5 9.5t-20.5 29.5q0 14 6 27
t14 27l131 225q20 34 49 41.5t66 7.5q54 0 81 -8.5t27 -36.5z" />
    <glyph glyph-name="Udblacute" unicode="&#x170;" horiz-adv-x="1343" 
d="M1204 440q0 -101 -29.5 -187t-93.5 -148.5t-165 -98t-244 -35.5t-244 35t-165.5 97t-94 148t-29.5 187v871q0 23 3.5 33t13.5 18q11 9 36.5 14.5t71.5 5.5q42 0 68 -5t37 -13q9 -9 12.5 -19.5t3.5 -31.5v-881q0 -52 16.5 -97.5t51.5 -79.5t89.5 -53.5t129.5 -19.5
t129 19.5t89 53.5t51.5 79.5t16.5 97.5v879q0 23 4 33t13 18q11 9 36 14.5t70 5.5q44 0 70 -5t37 -13q9 -9 12.5 -19.5t3.5 -31.5v-871zM796 1770q0 -17 -13.5 -39t-41.5 -59l-125 -170q-9 -13 -20 -23t-25 -18q-12 -7 -24 -10t-33 -3q-51 0 -71.5 9.5t-20.5 29.5q0 14 6 27
t14 27l131 225q20 34 49 41.5t66 7.5q54 0 81 -8.5t27 -36.5zM1138 1770q0 -17 -13.5 -39t-41.5 -59l-125 -170q-9 -13 -20 -23t-25 -18q-12 -7 -24 -10t-33 -3q-51 0 -71.5 9.5t-20.5 29.5q0 14 6 27t14 27l131 225q20 34 49 41.5t66 7.5q54 0 81 -8.5t27 -36.5z" />
    <glyph glyph-name="uring" unicode="&#x16f;" horiz-adv-x="1042" 
d="M926 61q0 -21 -4.5 -31t-14.5 -20q-9 -8 -30.5 -13t-63.5 -5t-63.5 5t-30.5 13t-13 19t-4 32v60q-17 -29 -44 -55t-62.5 -45t-79 -30t-92.5 -11q-72 0 -130 21.5t-98.5 63t-62.5 102.5t-22 140v524q0 22 3.5 32t12.5 18q11 9 34 14.5t66 5.5q41 0 65 -5t34 -13
q9 -8 12.5 -18.5t3.5 -30.5v-488q0 -88 42 -128t112 -40q38 0 73.5 16.5t62.5 44t43.5 64t16.5 76.5v452q0 22 3.5 32t13.5 18q11 9 34 14.5t66 5.5q40 0 64.5 -5t33.5 -13q10 -8 14.5 -18.5t4.5 -30.5v-773zM610 1200q0 19 -7.5 36t-20 30t-29.5 20.5t-35 7.5
q-19 0 -35.5 -8t-28.5 -21.5t-19 -30t-7 -34.5q0 -19 7.5 -36t20.5 -29.5t29 -19.5t33 -7q19 0 36 7t29.5 19.5t19.5 29.5t7 36zM719 1200q0 -41 -16 -77.5t-44 -64t-64.5 -43.5t-76.5 -16q-38 0 -74 16t-64 43.5t-44.5 64t-16.5 77.5q0 39 15 75.5t42 65t63.5 45.5t78.5 17
q39 0 75.5 -16.5t64 -44t44.5 -64.5t17 -78z" />
    <glyph glyph-name="Uring" unicode="&#x16e;" horiz-adv-x="1343" 
d="M1204 440q0 -101 -29.5 -187t-93.5 -148.5t-165 -98t-244 -35.5t-244 35t-165.5 97t-94 148t-29.5 187v871q0 23 3.5 33t13.5 18q11 9 36.5 14.5t71.5 5.5q42 0 68 -5t37 -13q9 -9 12.5 -19.5t3.5 -31.5v-881q0 -52 16.5 -97.5t51.5 -79.5t89.5 -53.5t129.5 -19.5
t129 19.5t89 53.5t51.5 79.5t16.5 97.5v879q0 23 4 33t13 18q11 9 36 14.5t70 5.5q44 0 70 -5t37 -13q9 -9 12.5 -19.5t3.5 -31.5v-871zM764 1651q0 19 -7.5 36t-20 30t-29.5 20.5t-35 7.5q-19 0 -35.5 -8t-28.5 -21.5t-19 -30t-7 -34.5q0 -19 7.5 -36t20.5 -29.5t29 -19.5
t33 -7q19 0 36 7t29.5 19.5t19.5 29.5t7 36zM873 1651q0 -41 -16 -77.5t-44 -64t-64.5 -43.5t-76.5 -16q-38 0 -74 16t-64 43.5t-44.5 64t-16.5 77.5q0 39 15 75.5t42 65t63.5 45.5t78.5 17q39 0 75.5 -16.5t64 -44t44.5 -64.5t17 -78z" />
    <glyph glyph-name="umacron" unicode="&#x16b;" horiz-adv-x="1042" 
d="M926 61q0 -21 -4.5 -31t-14.5 -20q-9 -8 -30.5 -13t-63.5 -5t-63.5 5t-30.5 13t-13 19t-4 32v60q-17 -29 -44 -55t-62.5 -45t-79 -30t-92.5 -11q-72 0 -130 21.5t-98.5 63t-62.5 102.5t-22 140v524q0 22 3.5 32t12.5 18q11 9 34 14.5t66 5.5q41 0 65 -5t34 -13
q9 -8 12.5 -18.5t3.5 -30.5v-488q0 -88 42 -128t112 -40q38 0 73.5 16.5t62.5 44t43.5 64t16.5 76.5v452q0 22 3.5 32t13.5 18q11 9 34 14.5t66 5.5q40 0 64.5 -5t33.5 -13q10 -8 14.5 -18.5t4.5 -30.5v-773zM787.5 1133.5q-5.5 -23.5 -15.5 -41.5q-12 -20 -26 -26.5
t-39 -6.5h-365q-15 0 -24 2t-17 4q-11 11 -14.5 23t-3.5 30q0 26 5.5 49t14.5 41q13 20 27 26.5t39 6.5h365q15 0 24 -2t17 -4q11 -11 14.5 -23t3.5 -30q0 -25 -5.5 -48.5z" />
    <glyph glyph-name="Umacron" unicode="&#x16a;" horiz-adv-x="1343" 
d="M1204 440q0 -101 -29.5 -187t-93.5 -148.5t-165 -98t-244 -35.5t-244 35t-165.5 97t-94 148t-29.5 187v871q0 23 3.5 33t13.5 18q11 9 36.5 14.5t71.5 5.5q42 0 68 -5t37 -13q9 -9 12.5 -19.5t3.5 -31.5v-881q0 -52 16.5 -97.5t51.5 -79.5t89.5 -53.5t129.5 -19.5
t129 19.5t89 53.5t51.5 79.5t16.5 97.5v879q0 23 4 33t13 18q11 9 36 14.5t70 5.5q44 0 70 -5t37 -13q9 -9 12.5 -19.5t3.5 -31.5v-871zM930.5 1584.5q-5.5 -23.5 -15.5 -41.5q-12 -20 -26 -26.5t-39 -6.5h-365q-15 0 -24 2t-17 4q-11 11 -14.5 23t-3.5 30q0 26 5.5 49
t14.5 41q13 20 27 26.5t39 6.5h365q15 0 24 -2t17 -4q11 -11 14.5 -23t3.5 -30q0 -25 -5.5 -48.5z" />
    <glyph glyph-name="tcaron" unicode="&#x165;" horiz-adv-x="723" 
d="M696 90q0 -22 -21 -38.5t-44 -28.5q-25 -14 -71 -28.5t-118 -14.5q-69 0 -117.5 15.5t-80.5 43.5q-42 35 -59 88.5t-17 128.5v451h-100q-20 0 -30.5 1.5t-17.5 4.5q-8 6 -11 14.5t-3 28.5q0 31 5 61.5t18 50.5q9 16 24 20.5t43 4.5h70v188q0 26 3.5 42.5t14.5 25.5
q10 9 32.5 16.5t51.5 14.5q19 5 40.5 7.5t35.5 2.5t24 -2.5t15 -5.5q11 -8 12.5 -19.5t1.5 -36.5v-233h205q20 0 30.5 -1.5t16.5 -4.5q8 -6 11.5 -14.5t3.5 -28.5q0 -31 -6 -62.5t-15 -48.5q-11 -17 -26.5 -21.5t-43.5 -4.5h-176v-439q0 -47 21 -69q21 -25 63 -25
q26 0 44.5 5.5t33.5 10.5q14 7 26.5 13t26.5 6q22 0 34.5 -16.5t23.5 -34.5q12 -22 19 -37t7 -31zM803 1327q0 -28 -17 -65l-92 -232q-8 -18 -17.5 -29t-22.5 -17t-30 -7.5t-40 -1.5q-47 0 -73 9.5t-26 37.5q0 14 2.5 26t5.5 27l56 244q4 17 11.5 28.5t22.5 19t39 10.5t62 3
q39 0 62.5 -5.5t36 -13.5t16.5 -17t4 -17z" />
    <glyph glyph-name="Tcaron" unicode="&#x164;" horiz-adv-x="1128" 
d="M1118 1319q0 -16 -1.5 -34t-4.5 -35t-7 -32t-9 -24q-11 -19 -28 -24t-46 -5h-334v-1102q0 -23 -3.5 -33t-12.5 -18q-11 -9 -36.5 -14.5t-70.5 -5.5q-43 0 -69 5t-37 13q-10 10 -13.5 20t-3.5 31v1104h-370q-22 0 -32 2.5t-15 6.5q-10 6 -12.5 17t-2.5 28q0 16 1.5 34
t4.5 35t7 31.5t10 23.5q11 19 27.5 24t43.5 5h951q21 0 31.5 -2.5t15.5 -5.5q16 -11 16 -45zM905 1778q0 -15 -12 -31t-33 -41l-180 -202q-13 -15 -23.5 -26t-22.5 -17.5t-27 -9.5t-38 -3t-38 3t-26.5 9.5t-21.5 16.5t-23 25l-180 202q-23 26 -34 42.5t-11 31.5
q0 17 15.5 26t50.5 9h55q22 0 36.5 -9.5t28.5 -23.5l148 -162l147 162q17 19 36.5 26t51.5 7h50q27 0 39 -9.5t12 -25.5z" />
    <glyph glyph-name="tcedilla" unicode="&#x163;" horiz-adv-x="692" 
d="M696 90q0 -22 -21 -38.5t-44 -28.5q-25 -14 -71 -28.5t-118 -14.5q-69 0 -117.5 15.5t-80.5 43.5q-42 35 -59 88.5t-17 128.5v451h-100q-20 0 -30.5 1.5t-17.5 4.5q-8 6 -11 14.5t-3 28.5q0 31 5 61.5t18 50.5q9 16 24 20.5t43 4.5h70v188q0 26 3.5 42.5t14.5 25.5
q10 9 32.5 16.5t51.5 14.5q19 5 40.5 7.5t35.5 2.5t24 -2.5t15 -5.5q11 -8 12.5 -19.5t1.5 -36.5v-233h205q20 0 30.5 -1.5t16.5 -4.5q8 -6 11.5 -14.5t3.5 -28.5q0 -31 -6 -62.5t-15 -48.5q-11 -17 -26.5 -21.5t-43.5 -4.5h-176v-439q0 -47 21 -69q21 -25 63 -25
q26 0 44.5 5.5t33.5 10.5q14 7 26.5 13t26.5 6q22 0 34.5 -16.5t23.5 -34.5q12 -22 19 -37t7 -31zM521 -104q0 -19 -6.5 -37t-15.5 -39l-78 -178q-7 -15 -15 -24.5t-19.5 -15t-27.5 -7t-40 -1.5q-23 0 -38 3t-23.5 8.5t-11.5 13t-3 16.5q0 17 3.5 33t8.5 33l47 182
q4 18 12 29.5t21 18t32.5 9.5t47.5 3q32 0 52.5 -4t32.5 -10.5t16.5 -15t4.5 -17.5z" />
    <glyph glyph-name="Tcedilla" unicode="&#x162;" horiz-adv-x="1128" 
d="M1118 1319q0 -16 -1.5 -34t-4.5 -35t-7 -32t-9 -24q-11 -19 -28 -24t-46 -5h-334v-1102q0 -23 -3.5 -33t-12.5 -18q-11 -9 -36.5 -14.5t-70.5 -5.5q-43 0 -69 5t-37 13q-10 10 -13.5 20t-3.5 31v1104h-370q-22 0 -32 2.5t-15 6.5q-10 6 -12.5 17t-2.5 28q0 16 1.5 34
t4.5 35t7 31.5t10 23.5q11 19 27.5 24t43.5 5h951q21 0 31.5 -2.5t15.5 -5.5q16 -11 16 -45zM674 -104q0 -19 -6.5 -37t-15.5 -39l-78 -178q-7 -15 -15 -24.5t-19.5 -15t-27.5 -7t-40 -1.5q-23 0 -38 3t-23.5 8.5t-11.5 13t-3 16.5q0 17 3.5 33t8.5 33l47 182q4 18 12 29.5
t21 18t32.5 9.5t47.5 3q32 0 52.5 -4t32.5 -10.5t16.5 -15t4.5 -17.5z" />
    <glyph glyph-name="sacute" unicode="&#x15b;" horiz-adv-x="840" 
d="M807 272q0 -71 -29 -125.5t-80 -91.5t-121 -56t-153 -19q-64 0 -117.5 8t-96 19t-74 24t-50.5 24q-32 19 -42.5 32.5t-10.5 29.5q0 14 7 33.5t19 39.5q14 23 27.5 34.5t30.5 11.5q11 0 24.5 -4.5t27 -10.5t26.5 -12t24 -10q16 -6 38.5 -13t49 -13t56 -9.5t59.5 -3.5
q69 0 109 23.5t40 68.5q0 22 -8 38.5t-26.5 29t-47.5 21t-71 15.5l-84 15q-55 9 -106 27.5t-90.5 49.5t-63 76t-23.5 107q0 68 27.5 120.5t76.5 88.5t116.5 54.5t146.5 18.5q77 0 147 -12.5t123 -32.5q37 -14 49.5 -28t12.5 -29t-4.5 -30.5t-12.5 -37.5q-8 -21 -20 -38
t-35 -17q-25 0 -50 9.5t-57 17.5q-35 8 -74.5 15t-90.5 7q-63 0 -96.5 -23t-33.5 -65q0 -37 41 -59t107 -33l96 -16q60 -10 112.5 -27.5t91 -48t61 -77.5t22.5 -116zM711 1319q0 -17 -14 -39t-42 -59l-125 -170q-9 -13 -20 -23t-25 -18q-23 -13 -65 -13q-51 0 -71.5 9.5
t-20.5 29.5q0 14 6 27t14 27l131 225q20 34 49 41.5t66 7.5q54 0 85.5 -8.5t31.5 -36.5z" />
    <glyph glyph-name="Sacute" unicode="&#x15a;" horiz-adv-x="1112" 
d="M1053 399q0 -107 -36.5 -187t-103.5 -133.5t-161 -80.5t-209 -27q-88 0 -156 10.5t-119.5 26.5t-88.5 33.5t-62 32.5q-68 38 -68 69q0 20 12 49t27 52q16 23 30.5 37t33.5 14q11 0 21.5 -2.5t27.5 -11.5q34 -19 68.5 -36.5t73.5 -31.5t84.5 -22.5t102.5 -8.5q59 0 110 11
t88 34t58 60t21 88q0 45 -20.5 77t-57.5 56t-89 43t-114 37l-112 33q-75 21 -139 51.5t-110.5 74.5t-72.5 105t-26 143q0 95 34 170.5t97 128t152 80t198 27.5q69 0 126 -7.5t102 -19t77 -24t51 -21.5q41 -20 54.5 -35t13.5 -30q0 -19 -9.5 -46.5t-23.5 -50.5t-27.5 -36
t-36.5 -13q-20 0 -59 15t-90 32q-21 7 -41.5 12t-44 8.5t-51.5 5t-64 1.5q-56 0 -97 -14.5t-68 -39t-40.5 -57t-13.5 -69.5q0 -41 21 -69.5t58 -50t88 -38.5t110 -35l104 -31q78 -23 145 -53.5t116.5 -76t77.5 -108.5t28 -151zM848 1770q0 -17 -14 -39t-42 -59l-125 -170
q-9 -13 -20 -23t-25 -18q-23 -13 -65 -13q-51 0 -71.5 9.5t-20.5 29.5q0 14 6 27t14 27l131 225q20 34 49 41.5t66 7.5q54 0 85.5 -8.5t31.5 -36.5z" />
    <glyph glyph-name="rcaron" unicode="&#x159;" horiz-adv-x="731" 
d="M731 817q0 -15 -6.5 -36.5t-17.5 -41.5q-13 -23 -28.5 -43t-35.5 -20q-15 0 -26.5 5t-28.5 11q-16 6 -32 11.5t-38 5.5q-35 0 -62 -16t-50 -44q-25 -31 -40.5 -73.5t-15.5 -98.5v-416q0 -21 -4.5 -31t-13.5 -18q-10 -9 -33.5 -14.5t-67.5 -5.5q-40 0 -63.5 5t-32.5 13
q-11 8 -14.5 18.5t-3.5 30.5v738q0 26 3.5 41t14.5 26q9 10 29.5 16.5t42.5 12.5q26 6 48 9t36 3q12 0 23.5 -1.5t17.5 -6.5q11 -9 12.5 -20t1.5 -35v-64q11 21 31 43.5t47 41t59.5 30.5t67.5 12t62 -6t55 -18q29 -13 46 -27.5t17 -36.5zM788 1327q0 -15 -12 -31t-33 -41
l-180 -202q-13 -15 -23.5 -26t-22.5 -17.5t-27 -9.5t-38 -3t-38 3t-26.5 9.5t-21.5 16.5t-23 25l-180 202q-23 26 -34 42.5t-11 31.5q0 17 15.5 26t50.5 9h55q22 0 36.5 -9.5t28.5 -23.5l148 -162l147 162q17 19 36.5 26t51.5 7h50q27 0 39 -9.5t12 -25.5z" />
    <glyph glyph-name="Rcaron" unicode="&#x158;" horiz-adv-x="1202" 
d="M834 971q0 45 -14 82t-46 63.5t-83 40.5t-126 14h-174v-426q18 -1 33 -1.5t31.5 -1t37.5 -1t50 -0.5q81 0 137 16.5t90 47t49 73t15 93.5zM1186 43q0 -21 -21 -31q-11 -6 -39 -13t-77 -7q-29 0 -52 1t-40.5 5.5t-30.5 13t-23 23.5l-336 506q-33 0 -57 0.5t-43.5 1
t-37 1.5t-36.5 3v-484q0 -23 -3.5 -33t-12.5 -18q-11 -9 -36.5 -14.5t-70.5 -5.5q-43 0 -68 5t-36 13q-9 10 -12.5 20t-3.5 31v1235q0 23 5 35.5t13 20.5q9 9 30.5 14.5t67.5 5.5h312q244 0 374.5 -99t130.5 -306q0 -64 -15 -122t-47.5 -107t-82.5 -88t-119 -64l336 -480
q16 -23 23.5 -37t7.5 -26zM936 1778q0 -15 -12 -31t-33 -41l-180 -202q-13 -15 -23.5 -26t-22.5 -17.5t-27 -9.5t-38 -3t-38 3t-26.5 9.5t-21.5 16.5t-23 25l-180 202q-23 26 -34 42.5t-11 31.5q0 17 15.5 26t50.5 9h55q22 0 36.5 -9.5t28.5 -23.5l148 -162l147 162
q17 19 36.5 26t51.5 7h50q27 0 39 -9.5t12 -25.5z" />
    <glyph glyph-name="rcedilla" unicode="&#x157;" horiz-adv-x="731" 
d="M731 817q0 -15 -6.5 -36.5t-17.5 -41.5q-13 -23 -28.5 -43t-35.5 -20q-15 0 -26.5 5t-28.5 11q-16 6 -32 11.5t-38 5.5q-35 0 -62 -16t-50 -44q-25 -31 -40.5 -73.5t-15.5 -98.5v-416q0 -21 -4.5 -31t-13.5 -18q-10 -9 -33.5 -14.5t-67.5 -5.5q-40 0 -63.5 5t-32.5 13
q-11 8 -14.5 18.5t-3.5 30.5v738q0 26 3.5 41t14.5 26q9 10 29.5 16.5t42.5 12.5q26 6 48 9t36 3q12 0 23.5 -1.5t17.5 -6.5q11 -9 12.5 -20t1.5 -35v-64q11 21 31 43.5t47 41t59.5 30.5t67.5 12t62 -6t55 -18q29 -13 46 -27.5t17 -36.5zM343 -104q0 -19 -6.5 -37t-15.5 -39
l-78 -178q-7 -15 -15 -24.5t-19.5 -15t-27.5 -7t-40 -1.5q-23 0 -38 3t-23.5 8.5t-11.5 13t-3 16.5q0 17 3.5 33t8.5 33l47 182q4 18 12 29.5t21 18t32.5 9.5t47.5 3q32 0 52.5 -4t32.5 -10.5t16.5 -15t4.5 -17.5z" />
    <glyph glyph-name="Rcedilla" unicode="&#x156;" horiz-adv-x="1202" 
d="M834 971q0 45 -14 82t-46 63.5t-83 40.5t-126 14h-174v-426q18 -1 33 -1.5t31.5 -1t37.5 -1t50 -0.5q81 0 137 16.5t90 47t49 73t15 93.5zM1186 43q0 -21 -21 -31q-11 -6 -39 -13t-77 -7q-29 0 -52 1t-40.5 5.5t-30.5 13t-23 23.5l-336 506q-33 0 -57 0.5t-43.5 1
t-37 1.5t-36.5 3v-484q0 -23 -3.5 -33t-12.5 -18q-11 -9 -36.5 -14.5t-70.5 -5.5q-43 0 -68 5t-36 13q-9 10 -12.5 20t-3.5 31v1235q0 23 5 35.5t13 20.5q9 9 30.5 14.5t67.5 5.5h312q244 0 374.5 -99t130.5 -306q0 -64 -15 -122t-47.5 -107t-82.5 -88t-119 -64l336 -480
q16 -23 23.5 -37t7.5 -26zM757 -104q0 -19 -6.5 -37t-15.5 -39l-78 -178q-7 -15 -15 -24.5t-19.5 -15t-27.5 -7t-40 -1.5q-23 0 -38 3t-23.5 8.5t-11.5 13t-3 16.5q0 17 3.5 33t8.5 33l47 182q4 18 12 29.5t21 18t32.5 9.5t47.5 3q32 0 52.5 -4t32.5 -10.5t16.5 -15
t4.5 -17.5z" />
    <glyph glyph-name="racute" unicode="&#x155;" horiz-adv-x="731" 
d="M731 817q0 -15 -6.5 -36.5t-17.5 -41.5q-13 -23 -28.5 -43t-35.5 -20q-15 0 -26.5 5t-28.5 11q-16 6 -32 11.5t-38 5.5q-35 0 -62 -16t-50 -44q-25 -31 -40.5 -73.5t-15.5 -98.5v-416q0 -21 -4.5 -31t-13.5 -18q-10 -9 -33.5 -14.5t-67.5 -5.5q-40 0 -63.5 5t-32.5 13
q-11 8 -14.5 18.5t-3.5 30.5v738q0 26 3.5 41t14.5 26q9 10 29.5 16.5t42.5 12.5q26 6 48 9t36 3q12 0 23.5 -1.5t17.5 -6.5q11 -9 12.5 -20t1.5 -35v-64q11 21 31 43.5t47 41t59.5 30.5t67.5 12t62 -6t55 -18q29 -13 46 -27.5t17 -36.5zM709 1319q0 -17 -14 -39t-42 -59
l-125 -170q-9 -13 -20 -23t-25 -18q-23 -13 -65 -13q-51 0 -71.5 9.5t-20.5 29.5q0 14 6 27t14 27l131 225q20 34 49 41.5t66 7.5q54 0 85.5 -8.5t31.5 -36.5z" />
    <glyph glyph-name="Racute" unicode="&#x154;" horiz-adv-x="1202" 
d="M834 971q0 45 -14 82t-46 63.5t-83 40.5t-126 14h-174v-426q18 -1 33 -1.5t31.5 -1t37.5 -1t50 -0.5q81 0 137 16.5t90 47t49 73t15 93.5zM1186 43q0 -21 -21 -31q-11 -6 -39 -13t-77 -7q-29 0 -52 1t-40.5 5.5t-30.5 13t-23 23.5l-336 506q-33 0 -57 0.5t-43.5 1
t-37 1.5t-36.5 3v-484q0 -23 -3.5 -33t-12.5 -18q-11 -9 -36.5 -14.5t-70.5 -5.5q-43 0 -68 5t-36 13q-9 10 -12.5 20t-3.5 31v1235q0 23 5 35.5t13 20.5q9 9 30.5 14.5t67.5 5.5h312q244 0 374.5 -99t130.5 -306q0 -64 -15 -122t-47.5 -107t-82.5 -88t-119 -64l336 -480
q16 -23 23.5 -37t7.5 -26zM873 1770q0 -17 -14 -39t-42 -59l-125 -170q-9 -13 -20 -23t-25 -18q-23 -13 -65 -13q-51 0 -71.5 9.5t-20.5 29.5q0 14 6 27t14 27l131 225q20 34 49 41.5t66 7.5q54 0 85.5 -8.5t31.5 -36.5z" />
    <glyph glyph-name="odblacute" unicode="&#x151;" horiz-adv-x="1040" 
d="M733 446q0 59 -14 109.5t-41 87t-67 57.5t-91 21t-90.5 -20.5t-67.5 -57t-42.5 -87t-14.5 -110.5q0 -59 14.5 -109t42 -87t67.5 -57.5t91 -20.5t90.5 20.5t66.5 57t41.5 86.5t14.5 110zM971 446q0 -104 -34 -190t-94 -147.5t-143 -95t-180 -33.5t-179.5 33.5t-142.5 94.5
t-94 147t-34 191t33.5 191t93.5 147.5t142.5 95t180.5 33.5q97 0 179.5 -33.5t143 -94.5t94.5 -147.5t34 -191.5zM675 1319q0 -17 -13.5 -39t-41.5 -59l-125 -170q-9 -13 -20 -23t-25 -18q-12 -7 -24 -10t-33 -3q-51 0 -71.5 9.5t-20.5 29.5q0 14 6 27t14 27l131 225
q20 34 49 41.5t66 7.5q54 0 81 -8.5t27 -36.5zM1017 1319q0 -17 -13.5 -39t-41.5 -59l-125 -170q-9 -13 -20 -23t-25 -18q-12 -7 -24 -10t-33 -3q-51 0 -71.5 9.5t-20.5 29.5q0 14 6 27t14 27l131 225q20 34 49 41.5t66 7.5q54 0 81 -8.5t27 -36.5z" />
    <glyph glyph-name="Odblacute" unicode="&#x150;" horiz-adv-x="1395" 
d="M1053 684q0 124 -24 218t-69.5 157.5t-111.5 96t-150 32.5t-150 -32t-111.5 -95.5t-70 -158t-24.5 -218.5q0 -248 93.5 -374t262.5 -126q83 0 149 31.5t111.5 94.5t70 156.5t24.5 217.5zM1311 684q0 -167 -44 -299.5t-124 -224.5t-193.5 -140.5t-251.5 -48.5
q-139 0 -252 48.5t-193.5 140t-124.5 224t-44 300.5q0 167 43.5 300t124 225.5t193.5 142t253 49.5q138 0 251.5 -49t193.5 -141t124 -225.5t44 -301.5zM837 1770q0 -17 -13.5 -39t-41.5 -59l-125 -170q-9 -13 -20 -23t-25 -18q-12 -7 -24 -10t-33 -3q-51 0 -71.5 9.5
t-20.5 29.5q0 14 6 27t14 27l131 225q20 34 49 41.5t66 7.5q54 0 81 -8.5t27 -36.5zM1179 1770q0 -17 -13.5 -39t-41.5 -59l-125 -170q-9 -13 -20 -23t-25 -18q-12 -7 -24 -10t-33 -3q-51 0 -71.5 9.5t-20.5 29.5q0 14 6 27t14 27l131 225q20 34 49 41.5t66 7.5
q54 0 81 -8.5t27 -36.5z" />
    <glyph glyph-name="omacron" unicode="&#x14d;" horiz-adv-x="1040" 
d="M733 446q0 59 -14 109.5t-41 87t-67 57.5t-91 21t-90.5 -20.5t-67.5 -57t-42.5 -87t-14.5 -110.5q0 -59 14.5 -109t42 -87t67.5 -57.5t91 -20.5t90.5 20.5t66.5 57t41.5 86.5t14.5 110zM971 446q0 -104 -34 -190t-94 -147.5t-143 -95t-180 -33.5t-179.5 33.5t-142.5 94.5
t-94 147t-34 191t33.5 191t93.5 147.5t142.5 95t180.5 33.5q97 0 179.5 -33.5t143 -94.5t94.5 -147.5t34 -191.5zM785.5 1133.5q-5.5 -23.5 -15.5 -41.5q-12 -20 -26 -26.5t-39 -6.5h-365q-15 0 -24 2t-17 4q-11 11 -14.5 23t-3.5 30q0 26 5.5 49t14.5 41q13 20 27 26.5
t39 6.5h365q15 0 24 -2t17 -4q11 -11 14.5 -23t3.5 -30q0 -25 -5.5 -48.5z" />
    <glyph glyph-name="Omacron" unicode="&#x14c;" horiz-adv-x="1395" 
d="M1053 684q0 124 -24 218t-69.5 157.5t-111.5 96t-150 32.5t-150 -32t-111.5 -95.5t-70 -158t-24.5 -218.5q0 -248 93.5 -374t262.5 -126q83 0 149 31.5t111.5 94.5t70 156.5t24.5 217.5zM1311 684q0 -167 -44 -299.5t-124 -224.5t-193.5 -140.5t-251.5 -48.5
q-139 0 -252 48.5t-193.5 140t-124.5 224t-44 300.5q0 167 43.5 300t124 225.5t193.5 142t253 49.5q138 0 251.5 -49t193.5 -141t124 -225.5t44 -301.5zM969.5 1584.5q-5.5 -23.5 -15.5 -41.5q-12 -20 -26 -26.5t-39 -6.5h-365q-15 0 -24 2t-17 4q-11 11 -14.5 23t-3.5 30
q0 26 5.5 49t14.5 41q13 20 27 26.5t39 6.5h365q15 0 24 -2t17 -4q11 -11 14.5 -23t3.5 -30q0 -25 -5.5 -48.5z" />
    <glyph glyph-name="ncaron" unicode="&#x148;" horiz-adv-x="1042" 
d="M932 61q0 -21 -4.5 -31t-14.5 -18q-9 -9 -33 -14.5t-67 -5.5q-40 0 -63.5 5t-32.5 13q-11 8 -15 18.5t-4 30.5v488q0 88 -39 128t-114 40q-40 0 -75.5 -16.5t-62 -44t-42 -64t-15.5 -76.5v-453q0 -21 -4.5 -31t-13.5 -18q-10 -9 -33.5 -14.5t-67.5 -5.5q-40 0 -63.5 5
t-32.5 13q-11 8 -14.5 18.5t-3.5 30.5v738q0 26 3.5 41t14.5 26q9 10 30 16.5t44 12.5q25 6 46.5 9t35.5 3q12 0 23.5 -1.5t17.5 -6.5q11 -9 12.5 -20t1.5 -35v-62q17 26 42.5 50t59.5 42.5t76.5 29.5t93.5 11q75 0 133.5 -22.5t98.5 -65t61 -103t21 -136.5v-525zM864 1327
q0 -15 -12 -31t-33 -41l-180 -202q-13 -15 -23.5 -26t-22.5 -17.5t-27 -9.5t-38 -3t-38 3t-26.5 9.5t-21.5 16.5t-23 25l-180 202q-23 26 -34 42.5t-11 31.5q0 17 15.5 26t50.5 9h55q22 0 36.5 -9.5t28.5 -23.5l148 -162l147 162q17 19 36.5 26t51.5 7h50q27 0 39 -9.5
t12 -25.5z" />
    <glyph glyph-name="Ncaron" unicode="&#x147;" horiz-adv-x="1305" 
d="M1155 63q0 -23 -4 -33t-12 -18q-11 -9 -33 -14.5t-64 -5.5q-45 0 -67.5 5.5t-34.5 16.5q-11 9 -18 25l-533 862v-838q0 -23 -3.5 -33t-12.5 -18q-11 -9 -33.5 -14.5t-67.5 -5.5q-43 0 -68 5t-36 13q-9 10 -12.5 20t-3.5 31v1143l-41 70q-8 14 -15.5 27.5t-7.5 25.5
q0 20 16 33q11 9 40.5 14.5t80.5 5.5q38 0 62 -4.5t39 -11t22 -15t12 -16.5l555 -901v877q0 23 4 33t13 18q11 9 34 14.5t66 5.5q45 0 70 -5t35 -13q9 -9 13.5 -19.5t4.5 -31.5v-1248zM965 1778q0 -15 -12 -31t-33 -41l-180 -202q-13 -15 -23.5 -26t-22.5 -17.5t-27 -9.5
t-38 -3t-38 3t-26.5 9.5t-21.5 16.5t-23 25l-180 202q-23 26 -34 42.5t-11 31.5q0 17 15.5 26t50.5 9h55q22 0 36.5 -9.5t28.5 -23.5l148 -162l147 162q17 19 36.5 26t51.5 7h50q27 0 39 -9.5t12 -25.5z" />
    <glyph glyph-name="ncedilla" unicode="&#x146;" horiz-adv-x="1042" 
d="M932 61q0 -21 -4.5 -31t-14.5 -18q-9 -9 -33 -14.5t-67 -5.5q-40 0 -63.5 5t-32.5 13q-11 8 -15 18.5t-4 30.5v488q0 88 -39 128t-114 40q-40 0 -75.5 -16.5t-62 -44t-42 -64t-15.5 -76.5v-453q0 -21 -4.5 -31t-13.5 -18q-10 -9 -33.5 -14.5t-67.5 -5.5q-40 0 -63.5 5
t-32.5 13q-11 8 -14.5 18.5t-3.5 30.5v738q0 26 3.5 41t14.5 26q9 10 30 16.5t44 12.5q25 6 46.5 9t35.5 3q12 0 23.5 -1.5t17.5 -6.5q11 -9 12.5 -20t1.5 -35v-62q17 26 42.5 50t59.5 42.5t76.5 29.5t93.5 11q75 0 133.5 -22.5t98.5 -65t61 -103t21 -136.5v-525zM617 -104
q0 -19 -6.5 -37t-15.5 -39l-78 -178q-7 -15 -15 -24.5t-19.5 -15t-27.5 -7t-40 -1.5q-23 0 -38 3t-23.5 8.5t-11.5 13t-3 16.5q0 17 3.5 33t8.5 33l47 182q4 18 12 29.5t21 18t32.5 9.5t47.5 3q32 0 52.5 -4t32.5 -10.5t16.5 -15t4.5 -17.5z" />
    <glyph glyph-name="Ncedilla" unicode="&#x145;" horiz-adv-x="1305" 
d="M1155 63q0 -23 -4 -33t-12 -18q-11 -9 -33 -14.5t-64 -5.5q-45 0 -67.5 5.5t-34.5 16.5q-11 9 -18 25l-533 862v-838q0 -23 -3.5 -33t-12.5 -18q-11 -9 -33.5 -14.5t-67.5 -5.5q-43 0 -68 5t-36 13q-9 10 -12.5 20t-3.5 31v1143l-41 70q-8 14 -15.5 27.5t-7.5 25.5
q0 20 16 33q11 9 40.5 14.5t80.5 5.5q38 0 62 -4.5t39 -11t22 -15t12 -16.5l555 -901v877q0 23 4 33t13 18q11 9 34 14.5t66 5.5q45 0 70 -5t35 -13q9 -9 13.5 -19.5t4.5 -31.5v-1248zM780 -104q0 -19 -6.5 -37t-15.5 -39l-78 -178q-7 -15 -15 -24.5t-19.5 -15t-27.5 -7
t-40 -1.5q-23 0 -38 3t-23.5 8.5t-11.5 13t-3 16.5q0 17 3.5 33t8.5 33l47 182q4 18 12 29.5t21 18t32.5 9.5t47.5 3q32 0 52.5 -4t32.5 -10.5t16.5 -15t4.5 -17.5z" />
    <glyph glyph-name="nacute" unicode="&#x144;" horiz-adv-x="1042" 
d="M932 61q0 -21 -4.5 -31t-14.5 -18q-9 -9 -33 -14.5t-67 -5.5q-40 0 -63.5 5t-32.5 13q-11 8 -15 18.5t-4 30.5v488q0 88 -39 128t-114 40q-40 0 -75.5 -16.5t-62 -44t-42 -64t-15.5 -76.5v-453q0 -21 -4.5 -31t-13.5 -18q-10 -9 -33.5 -14.5t-67.5 -5.5q-40 0 -63.5 5
t-32.5 13q-11 8 -14.5 18.5t-3.5 30.5v738q0 26 3.5 41t14.5 26q9 10 30 16.5t44 12.5q25 6 46.5 9t35.5 3q12 0 23.5 -1.5t17.5 -6.5q11 -9 12.5 -20t1.5 -35v-62q17 26 42.5 50t59.5 42.5t76.5 29.5t93.5 11q75 0 133.5 -22.5t98.5 -65t61 -103t21 -136.5v-525zM846 1319
q0 -17 -14 -39t-42 -59l-125 -170q-9 -13 -20 -23t-25 -18q-23 -13 -65 -13q-51 0 -71.5 9.5t-20.5 29.5q0 14 6 27t14 27l131 225q20 34 49 41.5t66 7.5q54 0 85.5 -8.5t31.5 -36.5z" />
    <glyph glyph-name="Nacute" unicode="&#x143;" horiz-adv-x="1305" 
d="M1155 63q0 -23 -4 -33t-12 -18q-11 -9 -33 -14.5t-64 -5.5q-45 0 -67.5 5.5t-34.5 16.5q-11 9 -18 25l-533 862v-838q0 -23 -3.5 -33t-12.5 -18q-11 -9 -33.5 -14.5t-67.5 -5.5q-43 0 -68 5t-36 13q-9 10 -12.5 20t-3.5 31v1143l-41 70q-8 14 -15.5 27.5t-7.5 25.5
q0 20 16 33q11 9 40.5 14.5t80.5 5.5q38 0 62 -4.5t39 -11t22 -15t12 -16.5l555 -901v877q0 23 4 33t13 18q11 9 34 14.5t66 5.5q45 0 70 -5t35 -13q9 -9 13.5 -19.5t4.5 -31.5v-1248zM949 1770q0 -17 -14 -39t-42 -59l-125 -170q-9 -13 -20 -23t-25 -18q-23 -13 -65 -13
q-51 0 -71.5 9.5t-20.5 29.5q0 14 6 27t14 27l131 225q20 34 49 41.5t66 7.5q54 0 85.5 -8.5t31.5 -36.5z" />
    <glyph glyph-name="lcaron" unicode="&#x13e;" horiz-adv-x="672" 
d="M350 61q0 -21 -4.5 -30t-13.5 -19q-10 -9 -33.5 -14.5t-67.5 -5.5q-40 0 -63.5 5t-32.5 13q-11 8 -14.5 18.5t-3.5 30.5v1213q0 52 16 65q11 11 32.5 18t47.5 13q25 6 47.5 9t36.5 3q12 0 23.5 -2t19.5 -10t9 -18.5t1 -32.5v-1256zM760 1327q0 -28 -17 -65l-92 -232
q-8 -18 -17.5 -29t-22.5 -17t-30 -7.5t-40 -1.5q-47 0 -73 9.5t-26 37.5q0 14 2.5 26t5.5 27l56 244q4 17 11.5 28.5t22.5 19t39 10.5t62 3q39 0 62.5 -5.5t36 -13.5t16.5 -17t4 -17z" />
    <glyph glyph-name="Lcaron" unicode="&#x13d;" horiz-adv-x="1024" 
d="M1016 154q0 -15 -2 -33.5t-5 -35.5t-7 -32t-9 -24q-9 -19 -26.5 -24t-44.5 -5h-656q-45 0 -67 5t-31 13t-13.5 20.5t-4.5 35.5v1235q0 23 3.5 33t12.5 18q11 9 36 14.5t70 5.5q44 0 70 -5t37 -13t13.5 -19t2.5 -32v-1102h559q22 0 32.5 -3t17.5 -9q6 -7 9 -16t3 -27z
M885 1327q0 -28 -17 -65l-92 -232q-8 -18 -17.5 -29t-22.5 -17t-30 -7.5t-40 -1.5q-47 0 -73 9.5t-26 37.5q0 14 2.5 26t5.5 27l56 244q4 17 11.5 28.5t22.5 19t39 10.5t62 3q39 0 62.5 -5.5t36 -13.5t16.5 -17t4 -17z" />
    <glyph glyph-name="lcedilla" unicode="&#x13c;" horiz-adv-x="467" 
d="M350 61q0 -21 -4.5 -30t-13.5 -19q-10 -9 -33.5 -14.5t-67.5 -5.5q-40 0 -63.5 5t-32.5 13q-11 8 -14.5 18.5t-3.5 30.5v1213q0 52 16 65q11 11 32.5 18t47.5 13q25 6 47.5 9t36.5 3q12 0 23.5 -2t19.5 -10t9 -18.5t1 -32.5v-1256zM335 -104q0 -19 -6.5 -37t-15.5 -39
l-78 -178q-7 -15 -15 -24.5t-19.5 -15t-27.5 -7t-40 -1.5q-23 0 -38 3t-23.5 8.5t-11.5 13t-3 16.5q0 17 3.5 33t8.5 33l47 182q4 18 12 29.5t21 18t32.5 9.5t47.5 3q32 0 52.5 -4t32.5 -10.5t16.5 -15t4.5 -17.5z" />
    <glyph glyph-name="Lcedilla" unicode="&#x13b;" horiz-adv-x="1024" 
d="M1016 154q0 -15 -2 -33.5t-5 -35.5t-7 -32t-9 -24q-9 -19 -26.5 -24t-44.5 -5h-656q-45 0 -67 5t-31 13t-13.5 20.5t-4.5 35.5v1235q0 23 3.5 33t12.5 18q11 9 36 14.5t70 5.5q44 0 70 -5t37 -13t13.5 -19t2.5 -32v-1102h559q22 0 32.5 -3t17.5 -9q6 -7 9 -16t3 -27z
M706 -104q0 -19 -6.5 -37t-15.5 -39l-78 -178q-7 -15 -15 -24.5t-19.5 -15t-27.5 -7t-40 -1.5q-23 0 -38 3t-23.5 8.5t-11.5 13t-3 16.5q0 17 3.5 33t8.5 33l47 182q4 18 12 29.5t21 18t32.5 9.5t47.5 3q32 0 52.5 -4t32.5 -10.5t16.5 -15t4.5 -17.5z" />
    <glyph glyph-name="lacute" unicode="&#x13a;" horiz-adv-x="467" 
d="M350 61q0 -21 -4.5 -30t-13.5 -19q-10 -9 -33.5 -14.5t-67.5 -5.5q-40 0 -63.5 5t-32.5 13q-11 8 -14.5 18.5t-3.5 30.5v1213q0 52 16 65q11 11 32.5 18t47.5 13q25 6 47.5 9t36.5 3q12 0 23.5 -2t19.5 -10t9 -18.5t1 -32.5v-1256zM522 1770q0 -17 -14 -39t-42 -59
l-125 -170q-9 -13 -20 -23t-25 -18q-23 -13 -65 -13q-51 0 -71.5 9.5t-20.5 29.5q0 14 6 27t14 27l131 225q20 34 49 41.5t66 7.5q54 0 85.5 -8.5t31.5 -36.5z" />
    <glyph glyph-name="Lacute" unicode="&#x139;" horiz-adv-x="1024" 
d="M1016 154q0 -15 -2 -33.5t-5 -35.5t-7 -32t-9 -24q-9 -19 -26.5 -24t-44.5 -5h-656q-45 0 -67 5t-31 13t-13.5 20.5t-4.5 35.5v1235q0 23 3.5 33t12.5 18q11 9 36 14.5t70 5.5q44 0 70 -5t37 -13t13.5 -19t2.5 -32v-1102h559q22 0 32.5 -3t17.5 -9q6 -7 9 -16t3 -27z
M556 1770q0 -17 -14 -39t-42 -59l-125 -170q-9 -13 -20 -23t-25 -18q-23 -13 -65 -13q-51 0 -71.5 9.5t-20.5 29.5q0 14 6 27t14 27l131 225q20 34 49 41.5t66 7.5q54 0 85.5 -8.5t31.5 -36.5z" />
    <glyph glyph-name="kcedilla" unicode="&#x137;" horiz-adv-x="954" 
d="M954 41q0 -11 -5 -18.5t-13 -12.5q-11 -6 -35.5 -12t-75.5 -6q-58 0 -94 7t-59 36l-322 393v-367q0 -21 -4.5 -31t-13.5 -18q-11 -9 -34 -14.5t-67 -5.5q-40 0 -63.5 5t-32.5 13q-11 10 -14.5 19.5t-3.5 29.5v1213q0 52 16 65q11 11 31.5 18t46.5 13q25 6 47.5 9t36.5 3
q12 0 23.5 -2t19.5 -10t9 -18.5t1 -32.5v-742l287 281q14 13 28 21t30.5 12t38 5t50.5 1q47 0 65.5 -4.5t26.5 -7.5q25 -10 25 -33q0 -14 -9.5 -26.5t-23.5 -24.5l-305 -291l354 -404q39 -41 39 -63zM636 -104q0 -19 -6.5 -37t-15.5 -39l-78 -178q-7 -15 -15 -24.5
t-19.5 -15t-27.5 -7t-40 -1.5q-23 0 -38 3t-23.5 8.5t-11.5 13t-3 16.5q0 17 3.5 33t8.5 33l47 182q4 18 12 29.5t21 18t32.5 9.5t47.5 3q32 0 52.5 -4t32.5 -10.5t16.5 -15t4.5 -17.5z" />
    <glyph glyph-name="Kcedilla" unicode="&#x136;" horiz-adv-x="1212" 
d="M1202 43q0 -12 -6.5 -20t-15.5 -13q-10 -5 -34.5 -11.5t-74.5 -6.5q-32 0 -56.5 1.5t-44 6t-34.5 13t-27 22.5l-514 594v-566q0 -23 -3.5 -33t-12.5 -18q-11 -9 -36.5 -14.5t-70.5 -5.5q-43 0 -69 5t-37 13q-9 10 -12.5 20t-3.5 31v1248q0 23 3.5 33t12.5 18
q11 9 36 14.5t70 5.5q44 0 70 -5t37 -13q9 -9 12.5 -19.5t3.5 -31.5v-510l486 536q12 14 25 22.5t30 13t39 6t51 1.5q50 0 74 -7t35 -13q8 -5 13 -12.5t5 -18.5t-10 -26t-27 -35l-495 -545l542 -617q19 -21 29 -36t10 -27zM764 -104q0 -19 -6.5 -37t-15.5 -39l-78 -178
q-7 -15 -15 -24.5t-19.5 -15t-27.5 -7t-40 -1.5q-23 0 -38 3t-23.5 8.5t-11.5 13t-3 16.5q0 17 3.5 33t8.5 33l47 182q4 18 12 29.5t21 18t32.5 9.5t47.5 3q32 0 52.5 -4t32.5 -10.5t16.5 -15t4.5 -17.5z" />
    <glyph glyph-name="iogonek" unicode="&#x12f;" horiz-adv-x="467" 
d="M397 -322q0 -19 -30 -40q-22 -16 -67.5 -30t-96.5 -14q-44 0 -86.5 11.5t-76.5 36t-54.5 63t-20.5 92.5q0 39 12 73.5t33 63t51 49.5t66 33q-8 7 -10 16.5t-2 26.5v738q0 26 3.5 41t14.5 26q9 10 32 17.5t52 13.5q20 5 42 7.5t36 2.5q11 0 23 -2t18 -8q8 -8 10 -18.5
t2 -34.5v-783q0 -27 -8 -39q-2 -3 -4.5 -5t-5.5 -5q-13 -10 -54 -16q-27 -14 -51 -32.5t-42 -40t-28 -46.5t-10 -51q0 -40 23.5 -62t58.5 -22q22 0 35.5 3.5t24.5 8.5q12 5 21 10t22 5q17 0 27.5 -11.5t19.5 -25.5q8 -11 14 -25t6 -27zM371 1198q0 -27 -11 -51t-30 -41.5
t-44 -28t-53 -10.5t-53 10t-43.5 27.5t-29.5 41.5t-11 52q0 27 10.5 51t29 42.5t43 29t52.5 10.5t53 -10.5t44.5 -28.5t31 -42t11.5 -52z" />
    <glyph glyph-name="Iogonek" unicode="&#x12e;" horiz-adv-x="545" 
d="M442 -322q0 -19 -30 -40q-22 -16 -67.5 -30t-96.5 -14q-44 0 -86.5 11.5t-76.5 36t-54.5 63t-20.5 92.5q0 38 11 72t31.5 61.5t48.5 48.5t63 33q-8 10 -11 19.5t-3 29.5v1248q0 23 3.5 33t12.5 18q11 9 36 14.5t68 5.5q45 0 71.5 -5t35.5 -13q9 -9 13.5 -19.5t4.5 -31.5
v-1248q0 -23 -4 -33t-12 -18q-15 -12 -57 -18q-28 -15 -52 -33.5t-42 -40t-28 -46t-10 -50.5q0 -40 23.5 -62t58.5 -22q22 0 35.5 3.5t24.5 8.5q12 5 21 10t22 5q17 0 27.5 -11.5t19.5 -25.5q8 -11 14 -25t6 -27z" />
    <glyph glyph-name="imacron" unicode="&#x12b;" horiz-adv-x="467" 
d="M348 59q0 -20 -3.5 -30.5t-14.5 -18.5q-10 -8 -34.5 -13t-66.5 -5q-40 0 -63.5 5t-32.5 13q-11 8 -14.5 18.5t-3.5 30.5v738q0 26 3.5 41t14.5 26q9 10 32 17.5t52 13.5q20 5 42 7.5t36 2.5q11 0 23 -2t18 -8q8 -8 10 -18.5t2 -34.5v-783zM485.5 1133.5
q-5.5 -23.5 -15.5 -41.5q-12 -20 -26 -26.5t-39 -6.5h-365q-15 0 -24 2t-17 4q-11 11 -14.5 23t-3.5 30q0 26 5.5 49t14.5 41q13 20 27 26.5t39 6.5h365q15 0 24 -2t17 -4q11 -11 14.5 -23t3.5 -30q0 -25 -5.5 -48.5z" />
    <glyph glyph-name="Imacron" unicode="&#x12a;" horiz-adv-x="545" 
d="M395 63q0 -23 -4 -33t-12 -18q-11 -9 -37 -14.5t-70 -5.5q-43 0 -69 5t-37 13q-9 10 -12.5 20t-3.5 31v1248q0 23 3.5 33t12.5 18q11 9 36 14.5t68 5.5q45 0 71.5 -5t35.5 -13q9 -9 13.5 -19.5t4.5 -31.5v-1248zM523.5 1584.5q-5.5 -23.5 -15.5 -41.5q-12 -20 -26 -26.5
t-39 -6.5h-365q-15 0 -24 2t-17 4q-11 11 -14.5 23t-3.5 30q0 26 5.5 49t14.5 41q13 20 27 26.5t39 6.5h365q15 0 24 -2t17 -4q11 -11 14.5 -23t3.5 -30q0 -25 -5.5 -48.5z" />
    <glyph glyph-name="gcedilla" unicode="&#x123;" horiz-adv-x="942" 
d="M721 1327q0 -15 -4 -31t-12 -34l-93 -232q-8 -18 -17.5 -29t-22.5 -17t-30 -7.5t-40 -1.5q-47 0 -73 9.5t-26 37.5q0 14 3 26t6 27l55 244q4 17 11.5 28.5t22.5 19t39 10.5t62 3q39 0 62.5 -5.5t36 -13.5t16.5 -17t4 -17zM711 -139q0 80 -125 98l-183 29q-3 1 -10.5 2
t-16.5 2.5t-17.5 2.5t-12.5 3q-34 -19 -59 -48t-25 -71q0 -31 17 -54.5t48 -39.5t74 -24.5t95 -8.5q102 0 158.5 28t56.5 81zM645 588q0 75 -45 117.5t-127 42.5q-87 0 -133.5 -42.5t-46.5 -117.5t46.5 -116.5t133.5 -41.5q39 0 71 11.5t54.5 32.5t34.5 50t12 64zM961 864
q0 -17 -11.5 -28.5t-29.5 -20.5q-5 -2 -18.5 -9t-29.5 -15t-32 -16.5t-25 -14.5q22 -34 34.5 -78.5t12.5 -93.5q0 -71 -28 -128.5t-78.5 -98.5t-120 -63t-152.5 -22q-28 0 -54 4t-48 9q-16 -10 -26.5 -24.5t-10.5 -31.5q0 -11 5.5 -20t18.5 -17.5t35 -15t56 -10.5l141 -18
q83 -11 146.5 -29t107 -49t66 -78t22.5 -115q0 -73 -34 -127t-94.5 -89.5t-145 -53t-185.5 -17.5q-102 0 -182.5 18.5t-136.5 53t-85.5 83t-29.5 108.5q0 44 13 78t35.5 59.5t51 43.5t60.5 30q-35 24 -54.5 57.5t-19.5 69.5q0 42 24.5 79t67.5 56q-72 40 -111.5 105
t-39.5 153q0 67 26.5 125t77 101t124 67t167.5 24q65 0 119 -11t92 -30q35 32 65 56.5t58 40.5q17 9 30.5 14.5t28.5 5.5q20 0 36 -12t32 -35q14 -20 21.5 -36.5t7.5 -33.5z" />
    <glyph glyph-name="Gcedilla" unicode="&#x122;" horiz-adv-x="1303" 
d="M1194 143q0 -24 -5.5 -38t-14.5 -25q-10 -11 -26 -22.5t-38 -20.5q-17 -7 -48 -18.5t-77.5 -22t-109.5 -18t-144 -7.5q-145 0 -264.5 48.5t-204.5 140t-131.5 224t-46.5 300.5t47.5 301.5t133 225.5t203 141t257.5 49q69 0 121.5 -6t93 -15t72 -20.5t57.5 -22.5
q48 -20 67 -36.5t19 -34.5q0 -19 -7 -40.5t-24 -51.5q-21 -41 -38 -54.5t-35 -13.5q-19 0 -45.5 11.5t-51.5 21.5q-47 18 -100 31.5t-131 13.5q-90 0 -161 -32.5t-119.5 -95.5t-74.5 -156.5t-26 -215.5t30.5 -215t83.5 -156t124.5 -95t154.5 -32t135 9t86 20v309h-233
q-22 0 -31.5 3t-15.5 8t-11.5 15.5t-5.5 29.5q0 15 1.5 33t4 35t7 32t10.5 25q11 17 28 22.5t46 5.5h321q45 0 67 -5.5t32 -14.5q9 -8 13.5 -20.5t4.5 -35.5v-514zM829 -104q0 -19 -6.5 -37t-15.5 -39l-78 -178q-7 -15 -15 -24.5t-19.5 -15t-27.5 -7t-40 -1.5q-23 0 -38 3
t-23.5 8.5t-11.5 13t-3 16.5q0 17 3.5 33t8.5 33l47 182q4 18 12 29.5t21 18t32.5 9.5t47.5 3q32 0 52.5 -4t32.5 -10.5t16.5 -15t4.5 -17.5z" />
    <glyph glyph-name="ecaron" unicode="&#x11b;" horiz-adv-x="971" 
d="M682 539q-2 47 -16 84.5t-38 63.5t-56.5 40t-71.5 14q-85 0 -136 -54t-63 -148h381zM907 467q0 -20 -1.5 -32.5t-4.5 -21t-7 -13.5t-9 -9q-11 -9 -31.5 -14.5t-60.5 -5.5h-492q7 -42 25.5 -78t48.5 -62t71 -40.5t93 -14.5q48 0 82 6.5t59 14.5q26 8 46.5 16t43.5 8
q25 0 37 -16.5t24 -42.5q11 -22 17 -37t6 -31q0 -15 -11 -30.5t-48 -30.5q-23 -10 -50.5 -19.5t-61.5 -17t-76 -12t-95 -4.5q-99 0 -180.5 32.5t-139.5 93t-90 146t-32 192.5q0 105 29.5 191.5t85 148t135.5 95.5t182 34q100 0 176 -33.5t127 -93t76.5 -141t25.5 -178.5z
M839 1327q0 -15 -12 -31t-33 -41l-180 -202q-13 -15 -23.5 -26t-22.5 -17.5t-27 -9.5t-38 -3t-38 3t-26.5 9.5t-21.5 16.5t-23 25l-180 202q-23 26 -34 42.5t-11 31.5q0 17 15.5 26t50.5 9h55q22 0 36.5 -9.5t28.5 -23.5l148 -162l147 162q17 19 36.5 26t51.5 7h50
q27 0 39 -9.5t12 -25.5z" />
    <glyph glyph-name="Ecaron" unicode="&#x11a;" horiz-adv-x="1063" 
d="M1042 154q0 -32 -5.5 -68t-16.5 -57q-9 -17 -26.5 -23t-45.5 -6h-682q-45 0 -67 5t-31 13t-13.5 20.5t-4.5 35.5v1222q0 23 4.5 36t13.5 20q9 9 30.5 14.5t67.5 5.5h705q21 0 31.5 -2.5t15.5 -5.5q9 -6 11.5 -17t2.5 -28q0 -16 -1.5 -34t-4.5 -35t-7 -32t-9 -24
q-11 -19 -27.5 -24t-44.5 -5h-543v-327h484q21 0 31 -3t16 -8q9 -6 12.5 -16t3.5 -29q0 -15 -1.5 -33t-4.5 -35.5t-7 -32.5t-9 -24q-11 -17 -28 -21.5t-46 -4.5h-451v-424h586q22 0 32 -2.5t15 -5.5q9 -7 11.5 -17.5t2.5 -27.5zM952 1778q0 -15 -12 -31t-33 -41l-180 -202
q-13 -15 -23.5 -26t-22.5 -17.5t-27 -9.5t-38 -3t-38 3t-26.5 9.5t-21.5 16.5t-23 25l-180 202q-23 26 -34 42.5t-11 31.5q0 17 15.5 26t50.5 9h55q22 0 36.5 -9.5t28.5 -23.5l148 -162l147 162q17 19 36.5 26t51.5 7h50q27 0 39 -9.5t12 -25.5z" />
    <glyph glyph-name="eogonek" unicode="&#x119;" horiz-adv-x="971" 
d="M682 539q-2 47 -16 84.5t-38 63.5t-56.5 40t-71.5 14q-85 0 -136 -54t-63 -148h381zM907 467q0 -20 -1.5 -32.5t-4.5 -21t-7 -13.5t-9 -9q-11 -9 -31.5 -14.5t-60.5 -5.5h-492q7 -42 25.5 -78t48.5 -62t71 -40.5t93 -14.5q48 0 82 6.5t59 14.5q26 8 46.5 16t43.5 8
q25 0 37 -16.5t24 -42.5q11 -22 17 -37t6 -31q0 -15 -11 -30.5t-48 -30.5q-41 -17 -95.5 -32.5t-138.5 -18.5q-46 -29 -76 -69.5t-30 -88.5q0 -40 23 -62t59 -22q21 0 34.5 3.5t24.5 8.5q12 5 21.5 10t21.5 5q17 0 27.5 -11.5t19.5 -25.5q8 -11 14.5 -25t6.5 -27
q0 -11 -8 -20t-23 -20q-11 -8 -28.5 -16t-39 -14t-46.5 -10t-50 -4q-44 0 -86.5 11.5t-76.5 36t-54.5 63t-20.5 92.5q0 65 30 115.5t83 81.5q-73 18 -131.5 57.5t-100 97t-63.5 132t-22 163.5q0 105 29.5 191.5t85 148t135.5 95.5t182 34q100 0 176 -33.5t127 -93t76.5 -141
t25.5 -178.5z" />
    <glyph glyph-name="Eogonek" unicode="&#x118;" horiz-adv-x="1063" 
d="M1042 154q0 -32 -5.5 -68t-16.5 -57q-9 -17 -26.5 -23t-45.5 -6h-41q-29 -14 -55 -33t-45 -41.5t-30 -48t-11 -53.5q0 -40 23.5 -62t58.5 -22q22 0 35 3.5t24 8.5q13 5 22 10t21 5q17 0 27.5 -11.5t19.5 -25.5q8 -11 14.5 -25t6.5 -27q0 -19 -31 -40q-11 -8 -28.5 -16
t-39 -14t-46.5 -10t-50 -4q-44 0 -86 11.5t-76 36t-54.5 63t-20.5 92.5q0 68 33.5 121t89.5 82h-443q-45 0 -67 5t-31 13t-13.5 20.5t-4.5 35.5v1222q0 23 4.5 36t13.5 20q9 9 30.5 14.5t67.5 5.5h705q21 0 31.5 -2.5t15.5 -5.5q9 -6 11.5 -17t2.5 -28q0 -16 -1.5 -34
t-4.5 -35t-7 -32t-9 -24q-11 -19 -27.5 -24t-44.5 -5h-543v-327h484q21 0 31 -3t16 -8q9 -6 12.5 -16t3.5 -29q0 -15 -1.5 -33t-4.5 -35.5t-7 -32.5t-9 -24q-11 -17 -28 -21.5t-46 -4.5h-451v-424h586q22 0 32 -2.5t15 -5.5q9 -7 11.5 -17.5t2.5 -27.5z" />
    <glyph glyph-name="edot" unicode="&#x117;" horiz-adv-x="971" 
d="M682 539q-2 47 -16 84.5t-38 63.5t-56.5 40t-71.5 14q-85 0 -136 -54t-63 -148h381zM907 467q0 -20 -1.5 -32.5t-4.5 -21t-7 -13.5t-9 -9q-11 -9 -31.5 -14.5t-60.5 -5.5h-492q7 -42 25.5 -78t48.5 -62t71 -40.5t93 -14.5q48 0 82 6.5t59 14.5q26 8 46.5 16t43.5 8
q25 0 37 -16.5t24 -42.5q11 -22 17 -37t6 -31q0 -15 -11 -30.5t-48 -30.5q-23 -10 -50.5 -19.5t-61.5 -17t-76 -12t-95 -4.5q-99 0 -180.5 32.5t-139.5 93t-90 146t-32 192.5q0 105 29.5 191.5t85 148t135.5 95.5t182 34q100 0 176 -33.5t127 -93t76.5 -141t25.5 -178.5z
M644 1178q0 -29 -11.5 -54t-30.5 -44.5t-44 -30.5t-53 -11q-26 0 -51 11t-44 30.5t-30.5 44.5t-11.5 54q0 27 10.5 52t29 45t43.5 32t54 12q26 0 51 -11.5t44.5 -31t31.5 -45t12 -53.5z" />
    <glyph glyph-name="Edot" unicode="&#x116;" horiz-adv-x="1063" 
d="M1042 154q0 -32 -5.5 -68t-16.5 -57q-9 -17 -26.5 -23t-45.5 -6h-682q-45 0 -67 5t-31 13t-13.5 20.5t-4.5 35.5v1222q0 23 4.5 36t13.5 20q9 9 30.5 14.5t67.5 5.5h705q21 0 31.5 -2.5t15.5 -5.5q9 -6 11.5 -17t2.5 -28q0 -16 -1.5 -34t-4.5 -35t-7 -32t-9 -24
q-11 -19 -27.5 -24t-44.5 -5h-543v-327h484q21 0 31 -3t16 -8q9 -6 12.5 -16t3.5 -29q0 -15 -1.5 -33t-4.5 -35.5t-7 -32.5t-9 -24q-11 -17 -28 -21.5t-46 -4.5h-451v-424h586q22 0 32 -2.5t15 -5.5q9 -7 11.5 -17.5t2.5 -27.5zM737 1629q0 -29 -11.5 -54t-30.5 -44.5
t-44 -30.5t-53 -11q-26 0 -51 11t-44 30.5t-30.5 44.5t-11.5 54q0 27 10.5 52t29 45t43.5 32t54 12q26 0 51 -11.5t44.5 -31t31.5 -45t12 -53.5z" />
    <glyph glyph-name="emacron" unicode="&#x113;" horiz-adv-x="971" 
d="M682 539q-2 47 -16 84.5t-38 63.5t-56.5 40t-71.5 14q-85 0 -136 -54t-63 -148h381zM907 467q0 -20 -1.5 -32.5t-4.5 -21t-7 -13.5t-9 -9q-11 -9 -31.5 -14.5t-60.5 -5.5h-492q7 -42 25.5 -78t48.5 -62t71 -40.5t93 -14.5q48 0 82 6.5t59 14.5q26 8 46.5 16t43.5 8
q25 0 37 -16.5t24 -42.5q11 -22 17 -37t6 -31q0 -15 -11 -30.5t-48 -30.5q-23 -10 -50.5 -19.5t-61.5 -17t-76 -12t-95 -4.5q-99 0 -180.5 32.5t-139.5 93t-90 146t-32 192.5q0 105 29.5 191.5t85 148t135.5 95.5t182 34q100 0 176 -33.5t127 -93t76.5 -141t25.5 -178.5z
M760.5 1133.5q-5.5 -23.5 -15.5 -41.5q-12 -20 -26 -26.5t-39 -6.5h-365q-15 0 -24 2t-17 4q-11 11 -14.5 23t-3.5 30q0 26 5.5 49t14.5 41q13 20 27 26.5t39 6.5h365q15 0 24 -2t17 -4q11 -11 14.5 -23t3.5 -30q0 -25 -5.5 -48.5z" />
    <glyph glyph-name="Emacron" unicode="&#x112;" horiz-adv-x="1063" 
d="M1042 154q0 -32 -5.5 -68t-16.5 -57q-9 -17 -26.5 -23t-45.5 -6h-682q-45 0 -67 5t-31 13t-13.5 20.5t-4.5 35.5v1222q0 23 4.5 36t13.5 20q9 9 30.5 14.5t67.5 5.5h705q21 0 31.5 -2.5t15.5 -5.5q9 -6 11.5 -17t2.5 -28q0 -16 -1.5 -34t-4.5 -35t-7 -32t-9 -24
q-11 -19 -27.5 -24t-44.5 -5h-543v-327h484q21 0 31 -3t16 -8q9 -6 12.5 -16t3.5 -29q0 -15 -1.5 -33t-4.5 -35.5t-7 -32.5t-9 -24q-11 -17 -28 -21.5t-46 -4.5h-451v-424h586q22 0 32 -2.5t15 -5.5q9 -7 11.5 -17.5t2.5 -27.5zM860.5 1584.5q-5.5 -23.5 -15.5 -41.5
q-12 -20 -26 -26.5t-39 -6.5h-365q-15 0 -24 2t-17 4q-11 11 -14.5 23t-3.5 30q0 26 5.5 49t14.5 41q13 20 27 26.5t39 6.5h365q15 0 24 -2t17 -4q11 -11 14.5 -23t3.5 -30q0 -25 -5.5 -48.5z" />
    <glyph glyph-name="Dmacron" unicode="&#x110;" horiz-adv-x="1356" 
d="M1012 690q0 232 -96.5 353.5t-286.5 121.5h-234v-360h203q20 0 30.5 -1.5t16.5 -4.5q8 -8 11 -16.5t3 -28.5q0 -32 -5.5 -65t-14.5 -50q-11 -19 -26.5 -24t-43.5 -5h-174v-403h246q181 0 276 123.5t95 359.5zM1272 690q0 -162 -45 -290t-127.5 -217t-200 -136t-262.5 -47
h-371q-45 0 -67 5t-31 13t-13.5 20.5t-4.5 35.5v536h-80q-20 0 -30.5 1.5t-16.5 4.5q-8 8 -11.5 17t-3.5 29q0 32 6 64t17 52q11 17 26 22t41 5h52v491q0 23 4.5 36t13.5 20q9 9 30.5 14.5t67.5 5.5h375q144 0 260.5 -45.5t199 -132.5t127 -214t44.5 -290z" />
    <glyph glyph-name="dcaron" unicode="&#x10f;" horiz-adv-x="1272" 
d="M721 455q0 50 -13.5 96t-39 81.5t-63.5 57t-87 21.5q-53 0 -92 -20.5t-65 -56t-39 -83.5t-13 -102q0 -59 13.5 -108t40 -84t65 -55t88.5 -20q49 0 87 19.5t64.5 55.5t40 86t13.5 112zM944 61q0 -21 -4.5 -32t-13.5 -19q-10 -8 -30 -13t-60 -5q-42 0 -63.5 5t-31.5 13
q-9 8 -12.5 19t-3.5 32v41q-17 -23 -42 -45t-59 -39t-76.5 -27.5t-94.5 -10.5q-76 0 -144.5 26.5t-118.5 79.5q-58 62 -89 152.5t-31 205.5q0 107 27.5 193.5t78 148t122 94.5t159.5 33q50 0 90 -10t71 -26t54 -36.5t39 -41.5v473q0 26 3.5 41t14.5 26q9 10 31 16.5t47 12.5
q23 5 45.5 8.5t36.5 3.5q12 0 22.5 -2t18.5 -8q8 -8 11 -18t3 -35v-1256zM1354 1327q0 -28 -17 -65l-92 -232q-8 -18 -17.5 -29t-22.5 -17t-30 -7.5t-40 -1.5q-47 0 -73 9.5t-26 37.5q0 14 2.5 26t5.5 27l56 244q4 17 11.5 28.5t22.5 19t39 10.5t62 3q39 0 62.5 -5.5
t36 -13.5t16.5 -17t4 -17z" />
    <glyph glyph-name="Dcaron" unicode="&#x10e;" horiz-adv-x="1356" 
d="M1012 690q0 232 -96.5 353.5t-286.5 121.5h-234v-958h246q181 0 276 123.5t95 359.5zM1272 690q0 -162 -45 -290t-127.5 -217t-200 -136t-262.5 -47h-371q-45 0 -67 5t-31 13t-13.5 20.5t-4.5 35.5v1222q0 23 4.5 36t13.5 20q9 9 30.5 14.5t67.5 5.5h375
q144 0 260.5 -45.5t199 -132.5t127 -214t44.5 -290zM985 1778q0 -15 -12 -31t-33 -41l-180 -202q-13 -15 -23.5 -26t-22.5 -17.5t-27 -9.5t-38 -3t-38 3t-26.5 9.5t-21.5 16.5t-23 25l-180 202q-23 26 -34 42.5t-11 31.5q0 17 15.5 26t50.5 9h55q22 0 36.5 -9.5t28.5 -23.5
l148 -162l147 162q17 19 36.5 26t51.5 7h50q27 0 39 -9.5t12 -25.5z" />
    <glyph glyph-name="ccircumflex" unicode="&#x109;" horiz-adv-x="827" 
d="M817 117q0 -16 -11.5 -31.5t-43.5 -34.5q-21 -12 -48 -25t-59.5 -23t-69.5 -16.5t-77 -6.5q-87 0 -165 29t-136.5 87t-92.5 145.5t-34 204.5q0 101 31.5 186.5t88 148t134.5 97.5t172 35q43 0 77 -3.5t61.5 -10t51 -15t45.5 -18.5q23 -10 37 -19t21.5 -17.5t9.5 -17
t2 -15.5q0 -16 -5 -34.5t-18 -43.5q-12 -25 -26 -44.5t-37 -19.5q-20 0 -36 9.5t-44 21.5t-55.5 19.5t-69.5 7.5q-43 0 -80.5 -19.5t-65 -55t-43.5 -84.5t-16 -108q0 -60 15.5 -108t42.5 -81.5t64 -52t79 -18.5q34 0 64 8t55 19t42.5 23t39.5 12q23 0 38.5 -15.5t30.5 -39.5
q13 -19 22 -40t9 -36zM829 1032q0 -17 -15.5 -26t-50.5 -9h-55q-22 0 -37 9.5t-29 23.5l-147 162l-147 -162q-17 -18 -37 -25.5t-52 -7.5h-49q-28 0 -39.5 10t-11.5 25q0 16 12 31.5t33 40.5l180 203q13 15 23.5 25.5t22.5 17t27 9.5t38 3t38 -3t26.5 -9t21.5 -16t23 -25
l180 -203q23 -26 34 -42t11 -32z" />
    <glyph glyph-name="Ccircumflex" unicode="&#x108;" horiz-adv-x="1143" 
d="M1122 117q0 -16 -11 -29.5t-40 -32.5q-12 -8 -32 -17t-42 -18t-44 -16t-38 -10q-42 -9 -93 -16t-117 -7q-135 0 -248.5 47.5t-196.5 138t-129.5 223t-46.5 302.5t46.5 303.5t128.5 226t194 141t243 48.5q68 0 119.5 -6t91 -15t69.5 -20t54 -21q48 -20 67 -36.5t19 -34.5
q0 -20 -7 -42.5t-24 -51.5q-11 -20 -20.5 -33t-18 -20.5t-17 -10t-17.5 -2.5q-17 0 -39 9t-37 16q-9 4 -29.5 12.5t-49.5 17t-67 15t-83 6.5q-84 0 -151.5 -31.5t-115 -94.5t-73 -156.5t-25.5 -217.5q0 -123 29 -215.5t78.5 -154.5t116 -93t141.5 -31q51 0 90.5 6t69 15
t51 18.5t36.5 16.5q25 11 37.5 14.5t28.5 3.5q18 0 36.5 -16t35.5 -45q30 -53 30 -86zM1026 1483q0 -17 -15.5 -26t-50.5 -9h-55q-22 0 -37 9.5t-29 23.5l-147 162l-147 -162q-17 -18 -37 -25.5t-52 -7.5h-49q-28 0 -39.5 10t-11.5 25q0 16 12 31.5t33 40.5l180 203
q13 15 23.5 25.5t22.5 17t27 9.5t38 3t38 -3t26.5 -9t21.5 -16t23 -25l180 -203q23 -26 34 -42t11 -32z" />
    <glyph glyph-name="aogonek" unicode="&#x105;" horiz-adv-x="946" 
d="M612 420l-204 -21q-72 -8 -108 -40.5t-36 -88.5q0 -55 34 -85.5t91 -30.5q33 0 72 9.5t72.5 33.5t56 64t22.5 101v58zM897 -322q0 -19 -31 -40q-11 -8 -28 -16t-39 -14t-47 -10t-50 -4q-44 0 -86 11.5t-76 36t-54.5 63t-20.5 92.5q0 40 15 77.5t41.5 67.5t61.5 50t76 26
q-9 16 -17.5 38.5t-14.5 43.5q-57 -60 -123.5 -90t-157.5 -30q-55 0 -109 14.5t-96.5 47.5t-69 85.5t-26.5 128.5q0 80 28 134.5t76 89.5t111.5 53t134.5 24l217 18v25q0 63 -43.5 102t-136.5 39q-59 0 -106 -15.5t-84 -31.5q-19 -8 -39 -17t-41 -9q-22 0 -35.5 15.5
t-26.5 37.5q-12 22 -16 34t-4 27q0 16 11.5 29.5t43.5 30.5q26 14 57 27t70 22.5t87 15.5t110 6q86 0 156.5 -20.5t119.5 -67.5q47 -45 70.5 -112t23.5 -166v-332q0 -42 9 -68.5t14 -40.5q5 -12 8.5 -21.5t3.5 -18.5q0 -12 -7 -21t-17 -16t-22.5 -13t-22.5 -10
q-11 -5 -21.5 -8.5t-21.5 -5.5q-48 -29 -77.5 -73t-29.5 -95q0 -40 23.5 -62t58.5 -22q22 0 35 3.5t24 8.5q13 5 22 10t21 5q17 0 27.5 -11.5t20.5 -25.5q8 -11 14 -25t6 -27z" />
    <glyph glyph-name="Aogonek" unicode="&#x104;" horiz-adv-x="1186" 
d="M588 1079l-182 -553h364zM1204 -322q0 -19 -30 -40q-22 -16 -67.5 -30t-96.5 -14q-44 0 -86.5 11.5t-76.5 36t-54.5 63t-20.5 92.5q0 40 12.5 75.5t35 64.5t54.5 49.5t70 31.5q-12 17 -18 37l-92 279h-492l-88 -268q-6 -20 -12.5 -35t-14.5 -21q-11 -9 -36 -14.5
t-68 -5.5q-45 0 -67 5t-33 13q-13 12 -13 29q0 9 4 24t9 29l434 1239q5 16 11.5 24t12.5 13q13 8 37 13t74 5q51 0 75.5 -5t37.5 -13q6 -5 12.5 -13t11.5 -24l436 -1247q5 -14 8 -25t3 -20t-5.5 -16.5t-11.5 -12.5q-8 -6 -28.5 -11t-55.5 -7q-52 -29 -87.5 -72t-35.5 -94
q0 -40 23.5 -62t58.5 -22q22 0 35.5 3.5t24.5 8.5q12 5 21 10t22 5q17 0 27 -11.5t20 -25.5q8 -11 14 -25t6 -27z" />
    <glyph glyph-name="abreve" unicode="&#x103;" horiz-adv-x="946" 
d="M612 420l-204 -21q-72 -8 -108 -40.5t-36 -88.5q0 -55 34 -85.5t91 -30.5q33 0 72 9.5t72.5 33.5t56 64t22.5 101v58zM864 66q0 -12 -7 -21t-17 -16t-22.5 -13t-22.5 -10q-22 -9 -41.5 -14.5t-42.5 -5.5q-17 0 -26.5 5t-18.5 17q-10 13 -20.5 39.5t-18.5 52.5
q-57 -60 -123.5 -90t-157.5 -30q-55 0 -109 14.5t-96.5 47.5t-69 85.5t-26.5 128.5q0 80 28 134.5t76 89.5t111.5 53t134.5 24l217 18v25q0 63 -43.5 102t-136.5 39q-59 0 -106 -15.5t-84 -31.5q-19 -8 -39 -17t-41 -9q-22 0 -35.5 15.5t-26.5 37.5q-12 22 -16 34t-4 27
q0 16 11.5 29.5t43.5 30.5q26 14 57 27t70 22.5t87 15.5t110 6q86 0 156.5 -20.5t119.5 -67.5q47 -45 70.5 -112t23.5 -166v-332q0 -42 9 -68.5t14 -40.5q5 -12 8.5 -21.5t3.5 -18.5zM757 1257q0 -21 -6.5 -43.5t-14.5 -44.5q-15 -38 -37.5 -69.5t-55.5 -54t-77 -35.5
t-100 -13t-100 13t-77 35.5t-55.5 54t-37.5 69.5q-8 22 -14.5 44.5t-6.5 43.5q0 22 14 34t37 12h56q29 0 41.5 -8t17.5 -23q6 -19 14 -38.5t22 -35t35.5 -25.5t53.5 -10t53.5 10t35.5 25.5t22 35t14 38.5q5 15 17.5 23t41.5 8h56q23 0 37 -12t14 -34z" />
    <glyph glyph-name="Abreve" unicode="&#x102;" horiz-adv-x="1186" 
d="M588 1079l-182 -553h364zM1176 37q0 -9 -5.5 -16.5t-11.5 -12.5q-8 -6 -32.5 -12t-69.5 -6q-51 0 -72.5 6t-32.5 14q-16 13 -26 45l-92 279h-492l-88 -268q-6 -20 -12.5 -35t-14.5 -21q-11 -9 -36 -14.5t-68 -5.5q-45 0 -67 5t-33 13q-13 12 -13 29q0 9 4 24t9 29
l434 1239q5 16 11.5 24t12.5 13q13 8 37 13t74 5q51 0 75.5 -5t37.5 -13q6 -5 12.5 -13t11.5 -24l436 -1247q5 -14 8 -25t3 -20zM889 1708q0 -21 -6.5 -43.5t-14.5 -44.5q-15 -38 -37.5 -69.5t-55.5 -54t-77 -35.5t-100 -13t-100 13t-77 35.5t-55.5 54t-37.5 69.5
q-8 22 -14.5 44.5t-6.5 43.5q0 22 14 34t37 12h56q29 0 41.5 -8t17.5 -23q6 -19 14 -38.5t22 -35t35.5 -25.5t53.5 -10t53.5 10t35.5 25.5t22 35t14 38.5q5 15 17.5 23t41.5 8h56q23 0 37 -12t14 -34z" />
    <glyph glyph-name="amacron" unicode="&#x101;" horiz-adv-x="946" 
d="M612 420l-204 -21q-72 -8 -108 -40.5t-36 -88.5q0 -55 34 -85.5t91 -30.5q33 0 72 9.5t72.5 33.5t56 64t22.5 101v58zM864 66q0 -12 -7 -21t-17 -16t-22.5 -13t-22.5 -10q-22 -9 -41.5 -14.5t-42.5 -5.5q-17 0 -26.5 5t-18.5 17q-10 13 -20.5 39.5t-18.5 52.5
q-57 -60 -123.5 -90t-157.5 -30q-55 0 -109 14.5t-96.5 47.5t-69 85.5t-26.5 128.5q0 80 28 134.5t76 89.5t111.5 53t134.5 24l217 18v25q0 63 -43.5 102t-136.5 39q-59 0 -106 -15.5t-84 -31.5q-19 -8 -39 -17t-41 -9q-22 0 -35.5 15.5t-26.5 37.5q-12 22 -16 34t-4 27
q0 16 11.5 29.5t43.5 30.5q26 14 57 27t70 22.5t87 15.5t110 6q86 0 156.5 -20.5t119.5 -67.5q47 -45 70.5 -112t23.5 -166v-332q0 -42 9 -68.5t14 -40.5q5 -12 8.5 -21.5t3.5 -18.5zM738.5 1133.5q-5.5 -23.5 -15.5 -41.5q-12 -20 -26 -26.5t-39 -6.5h-365q-15 0 -24 2
t-17 4q-11 11 -14.5 23t-3.5 30q0 26 5.5 49t14.5 41q13 20 27 26.5t39 6.5h365q15 0 24 -2t17 -4q11 -11 14.5 -23t3.5 -30q0 -25 -5.5 -48.5z" />
    <glyph glyph-name="Amacron" unicode="&#x100;" horiz-adv-x="1186" 
d="M588 1079l-182 -553h364zM1176 37q0 -9 -5.5 -16.5t-11.5 -12.5q-8 -6 -32.5 -12t-69.5 -6q-51 0 -72.5 6t-32.5 14q-16 13 -26 45l-92 279h-492l-88 -268q-6 -20 -12.5 -35t-14.5 -21q-11 -9 -36 -14.5t-68 -5.5q-45 0 -67 5t-33 13q-13 12 -13 29q0 9 4 24t9 29
l434 1239q5 16 11.5 24t12.5 13q13 8 37 13t74 5q51 0 75.5 -5t37.5 -13q6 -5 12.5 -13t11.5 -24l436 -1247q5 -14 8 -25t3 -20zM844.5 1584.5q-5.5 -23.5 -15.5 -41.5q-12 -20 -26 -26.5t-39 -6.5h-365q-15 0 -24 2t-17 4q-11 11 -14.5 23t-3.5 30q0 26 5.5 49t14.5 41
q13 20 27 26.5t39 6.5h365q15 0 24 -2t17 -4q11 -11 14.5 -23t3.5 -30q0 -25 -5.5 -48.5z" />
    <glyph glyph-name="dmacron" unicode="&#x111;" horiz-adv-x="1061" 
d="M721 455q0 50 -13.5 96t-39 81.5t-63.5 57t-87 21.5q-53 0 -92 -20.5t-65 -56t-39 -83.5t-13 -102q0 -59 13.5 -108t40 -84t65 -55t88.5 -20q49 0 87 19.5t64.5 55.5t40 86t13.5 112zM1055 1182q0 -25 -5.5 -48.5t-15.5 -41.5q-12 -20 -26.5 -26.5t-38.5 -6.5h-25v-998
q0 -21 -4.5 -32t-13.5 -19q-10 -8 -30 -13t-60 -5q-42 0 -63.5 5t-31.5 13q-9 8 -12.5 19t-3.5 32v41q-17 -23 -42 -45t-59 -39t-76.5 -27.5t-94.5 -10.5q-76 0 -144.5 26.5t-118.5 79.5q-58 62 -89 152.5t-31 205.5q0 107 27.5 193.5t78 148t122 94.5t159.5 33q50 0 90 -10
t71 -26t54 -36.5t39 -41.5v260h-189q-15 0 -24 2t-17 4q-11 11 -14.5 23t-3.5 30q0 26 5.5 49t14.5 41q13 20 27 26.5t39 6.5h162v31q0 26 3.5 41t14.5 26q9 10 31 16.5t47 12.5q23 5 45.5 8.5t36.5 3.5q12 0 22.5 -2t18.5 -8q8 -8 11 -18t3 -35v-76h51q16 0 24.5 -2
t16.5 -4q11 -11 15 -23t4 -30z" />
    <glyph glyph-name="ccaron" unicode="&#x10d;" horiz-adv-x="827" 
d="M817 117q0 -16 -11.5 -31.5t-43.5 -34.5q-21 -12 -48 -25t-59.5 -23t-69.5 -16.5t-77 -6.5q-87 0 -165 29t-136.5 87t-92.5 145.5t-34 204.5q0 101 31.5 186.5t88 148t134.5 97.5t172 35q43 0 77 -3.5t61.5 -10t51 -15t45.5 -18.5q23 -10 37 -19t21.5 -17.5t9.5 -17
t2 -15.5q0 -16 -5 -34.5t-18 -43.5q-12 -25 -26 -44.5t-37 -19.5q-20 0 -36 9.5t-44 21.5t-55.5 19.5t-69.5 7.5q-43 0 -80.5 -19.5t-65 -55t-43.5 -84.5t-16 -108q0 -60 15.5 -108t42.5 -81.5t64 -52t79 -18.5q34 0 64 8t55 19t42.5 23t39.5 12q23 0 38.5 -15.5t30.5 -39.5
q13 -19 22 -40t9 -36zM841 1327q0 -15 -12 -31t-33 -41l-180 -202q-13 -15 -23.5 -26t-22.5 -17.5t-27 -9.5t-38 -3t-38 3t-26.5 9.5t-21.5 16.5t-23 25l-180 202q-23 26 -34 42.5t-11 31.5q0 17 15.5 26t50.5 9h55q22 0 36.5 -9.5t28.5 -23.5l148 -162l147 162
q17 19 36.5 26t51.5 7h50q27 0 39 -9.5t12 -25.5z" />
    <glyph glyph-name="Ccaron" unicode="&#x10c;" horiz-adv-x="1143" 
d="M1122 117q0 -16 -11 -29.5t-40 -32.5q-12 -8 -32 -17t-42 -18t-44 -16t-38 -10q-42 -9 -93 -16t-117 -7q-135 0 -248.5 47.5t-196.5 138t-129.5 223t-46.5 302.5t46.5 303.5t128.5 226t194 141t243 48.5q68 0 119.5 -6t91 -15t69.5 -20t54 -21q48 -20 67 -36.5t19 -34.5
q0 -20 -7 -42.5t-24 -51.5q-11 -20 -20.5 -33t-18 -20.5t-17 -10t-17.5 -2.5q-17 0 -39 9t-37 16q-9 4 -29.5 12.5t-49.5 17t-67 15t-83 6.5q-84 0 -151.5 -31.5t-115 -94.5t-73 -156.5t-25.5 -217.5q0 -123 29 -215.5t78.5 -154.5t116 -93t141.5 -31q51 0 90.5 6t69 15
t51 18.5t36.5 16.5q25 11 37.5 14.5t28.5 3.5q18 0 36.5 -16t35.5 -45q30 -53 30 -86zM1028 1778q0 -15 -12 -31t-33 -41l-180 -202q-13 -15 -23.5 -26t-22.5 -17.5t-27 -9.5t-38 -3t-38 3t-26.5 9.5t-21.5 16.5t-23 25l-180 202q-23 26 -34 42.5t-11 31.5q0 17 15.5 26
t50.5 9h55q22 0 36.5 -9.5t28.5 -23.5l148 -162l147 162q17 19 36.5 26t51.5 7h50q27 0 39 -9.5t12 -25.5z" />
    <glyph glyph-name="cacute" unicode="&#x107;" horiz-adv-x="827" 
d="M817 117q0 -16 -11.5 -31.5t-43.5 -34.5q-21 -12 -48 -25t-59.5 -23t-69.5 -16.5t-77 -6.5q-87 0 -165 29t-136.5 87t-92.5 145.5t-34 204.5q0 101 31.5 186.5t88 148t134.5 97.5t172 35q43 0 77 -3.5t61.5 -10t51 -15t45.5 -18.5q23 -10 37 -19t21.5 -17.5t9.5 -17
t2 -15.5q0 -16 -5 -34.5t-18 -43.5q-12 -25 -26 -44.5t-37 -19.5q-20 0 -36 9.5t-44 21.5t-55.5 19.5t-69.5 7.5q-43 0 -80.5 -19.5t-65 -55t-43.5 -84.5t-16 -108q0 -60 15.5 -108t42.5 -81.5t64 -52t79 -18.5q34 0 64 8t55 19t42.5 23t39.5 12q23 0 38.5 -15.5t30.5 -39.5
q13 -19 22 -40t9 -36zM785 1319q0 -17 -14 -39t-42 -59l-125 -170q-9 -13 -20 -23t-25 -18q-23 -13 -65 -13q-51 0 -71.5 9.5t-20.5 29.5q0 14 6 27t14 27l131 225q20 34 49 41.5t66 7.5q54 0 85.5 -8.5t31.5 -36.5z" />
    <glyph glyph-name="Cacute" unicode="&#x106;" horiz-adv-x="1143" 
d="M1122 117q0 -16 -11 -29.5t-40 -32.5q-12 -8 -32 -17t-42 -18t-44 -16t-38 -10q-42 -9 -93 -16t-117 -7q-135 0 -248.5 47.5t-196.5 138t-129.5 223t-46.5 302.5t46.5 303.5t128.5 226t194 141t243 48.5q68 0 119.5 -6t91 -15t69.5 -20t54 -21q48 -20 67 -36.5t19 -34.5
q0 -20 -7 -42.5t-24 -51.5q-11 -20 -20.5 -33t-18 -20.5t-17 -10t-17.5 -2.5q-17 0 -39 9t-37 16q-9 4 -29.5 12.5t-49.5 17t-67 15t-83 6.5q-84 0 -151.5 -31.5t-115 -94.5t-73 -156.5t-25.5 -217.5q0 -123 29 -215.5t78.5 -154.5t116 -93t141.5 -31q51 0 90.5 6t69 15
t51 18.5t36.5 16.5q25 11 37.5 14.5t28.5 3.5q18 0 36.5 -16t35.5 -45q30 -53 30 -86zM994 1770q0 -17 -14 -39t-42 -59l-125 -170q-9 -13 -20 -23t-25 -18q-23 -13 -65 -13q-51 0 -71.5 9.5t-20.5 29.5q0 14 6 27t14 27l131 225q20 34 49 41.5t66 7.5q54 0 85.5 -8.5
t31.5 -36.5z" />
    <glyph glyph-name="scedilla" unicode="&#x15f;" horiz-adv-x="840" 
d="M807 272q0 -71 -29 -125.5t-80 -91.5t-121 -56t-153 -19q-64 0 -117.5 8t-96 19t-74 24t-50.5 24q-32 19 -42.5 32.5t-10.5 29.5q0 14 7 33.5t19 39.5q14 23 27.5 34.5t30.5 11.5q11 0 24.5 -4.5t27 -10.5t26.5 -12t24 -10q16 -6 38.5 -13t49 -13t56 -9.5t59.5 -3.5
q69 0 109 23.5t40 68.5q0 22 -8 38.5t-26.5 29t-47.5 21t-71 15.5l-84 15q-55 9 -106 27.5t-90.5 49.5t-63 76t-23.5 107q0 68 27.5 120.5t76.5 88.5t116.5 54.5t146.5 18.5q77 0 147 -12.5t123 -32.5q37 -14 49.5 -28t12.5 -29t-4.5 -30.5t-12.5 -37.5q-8 -21 -20 -38
t-35 -17q-25 0 -50 9.5t-57 17.5q-35 8 -74.5 15t-90.5 7q-63 0 -96.5 -23t-33.5 -65q0 -37 41 -59t107 -33l96 -16q60 -10 112.5 -27.5t91 -48t61 -77.5t22.5 -116zM525 -104q0 -19 -6.5 -37t-15.5 -39l-78 -178q-7 -15 -15 -24.5t-19.5 -15t-27.5 -7t-40 -1.5q-23 0 -38 3
t-23.5 8.5t-11.5 13t-3 16.5q0 17 3.5 33t8.5 33l47 182q4 18 12 29.5t21 18t32.5 9.5t47.5 3q32 0 52.5 -4t32.5 -10.5t16.5 -15t4.5 -17.5z" />
    <glyph glyph-name="scedilla" unicode="&#xf6c2;" horiz-adv-x="840" 
d="M807 272q0 -71 -29 -125.5t-80 -91.5t-121 -56t-153 -19q-64 0 -117.5 8t-96 19t-74 24t-50.5 24q-32 19 -42.5 32.5t-10.5 29.5q0 14 7 33.5t19 39.5q14 23 27.5 34.5t30.5 11.5q11 0 24.5 -4.5t27 -10.5t26.5 -12t24 -10q16 -6 38.5 -13t49 -13t56 -9.5t59.5 -3.5
q69 0 109 23.5t40 68.5q0 22 -8 38.5t-26.5 29t-47.5 21t-71 15.5l-84 15q-55 9 -106 27.5t-90.5 49.5t-63 76t-23.5 107q0 68 27.5 120.5t76.5 88.5t116.5 54.5t146.5 18.5q77 0 147 -12.5t123 -32.5q37 -14 49.5 -28t12.5 -29t-4.5 -30.5t-12.5 -37.5q-8 -21 -20 -38
t-35 -17q-25 0 -50 9.5t-57 17.5q-35 8 -74.5 15t-90.5 7q-63 0 -96.5 -23t-33.5 -65q0 -37 41 -59t107 -33l96 -16q60 -10 112.5 -27.5t91 -48t61 -77.5t22.5 -116zM525 -104q0 -19 -6.5 -37t-15.5 -39l-78 -178q-7 -15 -15 -24.5t-19.5 -15t-27.5 -7t-40 -1.5q-23 0 -38 3
t-23.5 8.5t-11.5 13t-3 16.5q0 17 3.5 33t8.5 33l47 182q4 18 12 29.5t21 18t32.5 9.5t47.5 3q32 0 52.5 -4t32.5 -10.5t16.5 -15t4.5 -17.5z" />
    </font>
</defs>
</svg>
